<?xml version="1.0" standalone="no"?>
<!DOCTYPE svg PUBLIC "-//W3C//DTD SVG 1.1//EN" "http://www.w3.org/Graphics/SVG/1.1/DTD/svg11.dtd" >
<svg xmlns="http://www.w3.org/2000/svg">
<metadata></metadata>
<defs>
<font id="stainlesscondbold" horiz-adv-x="1273" >
<font-face units-per-em="2048" ascent="1628" descent="-420" />
<missing-glyph horiz-adv-x="348" />
<glyph unicode="&#xfb01;" horiz-adv-x="1099" d="M45 750v227h121v164q0 66 9 111.5t34.5 86t67.5 67t113.5 50t166.5 40t231 32.5l33 -240q-184 -27 -264 -49t-100.5 -46.5t-20.5 -76.5v-139h559v-977h-270v752h-289v-752h-270v750h-121z" />
<glyph unicode="&#xfb02;" horiz-adv-x="1099" d="M45 750v227h121v162q0 100 12 159t52 108t115 75.5t200 42.5l45 -248q-55 -10 -84.5 -20.5t-46 -30.5t-20 -42.5t-3.5 -66.5v-139h152v-227h-152v-750h-270v750h-121zM725 0v1532h270v-1532h-270z" />
<glyph horiz-adv-x="0" />
<glyph horiz-adv-x="682" />
<glyph unicode=" "  horiz-adv-x="348" />
<glyph unicode="&#x09;" horiz-adv-x="348" />
<glyph unicode="&#xa0;" horiz-adv-x="348" />
<glyph unicode="!" horiz-adv-x="632" d="M147 1499h340l-67 -1044h-205zM154 0v322h323v-322h-323z" />
<glyph unicode="&#x22;" horiz-adv-x="913" d="M90 1499h322l-60 -541h-205zM502 1499h323l-59 -541h-205z" />
<glyph unicode="#" horiz-adv-x="1148" d="M57 420v215h183l30 229h-213v215h240l55 441h221l-57 -441h197l55 441h223l-55 -441h154v-215h-181l-28 -229h209v-215h-238l-55 -440h-222l54 440h-195l-53 -440h-223l55 440h-156zM453 625h209l30 247h-209z" />
<glyph unicode="$" horiz-adv-x="1103" d="M80 1116q0 196 82 289t282 108v195h226v-195q207 -9 305 -38l-45 -240q-224 39 -381 39q-115 0 -154 -34t-39 -128q0 -55 7 -85t36 -56t70 -42.5t127 -43.5q101 -31 161 -52t115.5 -50.5t83 -58.5t48.5 -74.5t27.5 -99.5t6.5 -134q0 -109 -16 -181.5t-57.5 -126 t-112.5 -81.5t-182 -37v-228h-226v224q-203 7 -362 39l41 241q71 -14 196.5 -29.5t215.5 -15.5q138 0 180.5 37.5t42.5 151.5q0 52 -6.5 79.5t-36 53.5t-73 44t-134.5 48q-97 30 -158 52.5t-113.5 52.5t-79 60t-46 77.5t-25.5 102.5t-6 136z" />
<glyph unicode="%" horiz-adv-x="1978" d="M45 1026q0 120 15.5 206t44 142.5t76.5 89t106 45.5t139 13q103 0 170 -20.5t116.5 -74.5t71 -150.5t21.5 -246.5q0 -120 -15.5 -205.5t-44 -141.5t-77 -88t-106.5 -45t-140 -13q-102 0 -168.5 20t-116 73.5t-71 150t-21.5 245.5zM287 987q0 -150 28 -203t111 -53 q84 0 110.5 50.5t26.5 201.5v88q0 150 -28 200t-113 50q-83 0 -109 -48t-26 -198v-88zM641 0l461 1499h237l-460 -1499h-238zM1176 469q0 149 22 246t72 151.5t117 75.5t169 21q81 0 138.5 -12.5t105 -44.5t75.5 -87.5t43 -140.5t15 -205q0 -150 -22 -247.5t-72 -152 t-117 -75.5t-170 -21q-81 0 -138.5 12.5t-105 44.5t-75 88t-42.5 141t-15 206zM1415 428q0 -151 28.5 -203.5t112.5 -52.5t111 50.5t27 201.5v88q0 149 -28.5 199.5t-113.5 50.5q-84 0 -110.5 -48t-26.5 -198v-88z" />
<glyph unicode="&#x26;" horiz-adv-x="1370" d="M70 467q0 183 64.5 265.5t227.5 119.5q-72 106 -95 170.5t-23 148.5q0 105 25 173.5t81.5 108.5t135.5 55.5t198 15.5q173 0 363 -37l-41 -242q-196 37 -332 37q-96 0 -129 -25t-33 -90q0 -63 32 -118.5t167 -235.5l153 -197l107 291h246l-191 -504l311 -403h-323 l-113 143q-55 -99 -119 -131t-188 -32q-76 0 -130 3t-109 11t-91.5 23.5t-71 40.5t-55.5 60.5t-37 85.5t-23 115t-7 148zM330 461q0 -86 11.5 -135.5t43.5 -77t76 -35.5t123 -8q65 0 98 24.5t68 108.5l-222 291q-35 47 -55 76q-89 -27 -116 -77.5t-27 -166.5z" />
<glyph unicode="'" horiz-adv-x="501" d="M90 1499h322l-60 -541h-205z" />
<glyph unicode="(" horiz-adv-x="724" d="M66 606q0 150 4 256t16.5 203t31 160.5t52 118t76.5 85t106.5 53t138.5 30.5t177 8v-234q-66 0 -108.5 -3t-83 -16.5t-64 -31.5t-44.5 -57t-30.5 -83.5t-17 -121t-9.5 -159.5t-2 -208q0 -124 2 -207t9.5 -159.5t17 -121.5t30.5 -84t44.5 -57.5t64 -32t83.5 -17t108 -3.5 v-225q-102 0 -176.5 8t-138.5 29.5t-106 51t-76 83.5t-53 116.5t-31.5 159.5t-16.5 203t-4 256z" />
<glyph unicode=")" horiz-adv-x="724" d="M55 -76q52 0 89 2t72.5 9.5t59 18t45.5 32t35 46t24.5 66.5t17 86.5t10 112.5t5.5 138.5t1 170.5q0 125 -2 208t-9.5 159.5t-17 121t-30.5 83.5t-44.5 57t-64 31.5t-83 16.5t-108.5 3v234q102 0 177 -8t138.5 -30t106 -52.5t76.5 -85t52.5 -118t31 -160.5t16.5 -203.5 t4 -256.5t-4 -256t-16.5 -203t-31 -159.5t-52.5 -116.5t-76.5 -83.5t-106 -51t-138.5 -29.5t-177 -8v225z" />
<glyph unicode="*" horiz-adv-x="989" d="M55 883l271 153l-267 154l101 184l252 -182l-19 332h201l-14 -334l251 182l101 -184l-268 -152l268 -151l-101 -185l-251 183l12 -332h-201l19 332l-254 -183z" />
<glyph unicode="+" horiz-adv-x="985" d="M78 578v217h303v323h223v-323h303v-217h-303v-326h-223v326h-303z" />
<glyph unicode="," horiz-adv-x="552" d="M66 -209l77 543h346l-296 -608z" />
<glyph unicode="-" horiz-adv-x="706" d="M78 465v229h553v-229h-553z" />
<glyph unicode="." horiz-adv-x="565" d="M117 0v334h329v-334h-329z" />
<glyph unicode="/" horiz-adv-x="737" d="M18 0l451 1499h252l-453 -1499h-250z" />
<glyph unicode="0" horiz-adv-x="1212" d="M74 750q0 188 17 317.5t53.5 220.5t101 141.5t150.5 72.5t212 22q104 0 179.5 -14t137 -49t100.5 -90.5t65.5 -143t37.5 -202t11 -271.5q0 -235 -26 -383t-91 -238t-163.5 -124t-254.5 -34q-125 0 -210.5 22t-149.5 72.5t-100 141.5t-53 220.5t-17 318.5zM358 662 q0 -177 22.5 -271t75 -134t152.5 -40t151 39t72 131t21 270v183q0 178 -22 270t-74 130t-152 38q-76 0 -121.5 -18t-74.5 -69t-39.5 -132t-10.5 -215v-182z" />
<glyph unicode="1" horiz-adv-x="679" d="M41 1255v244h489v-1499h-284v1255h-205z" />
<glyph unicode="2" horiz-adv-x="1099" d="M59 0v223l416 451q165 175 201.5 238.5t36.5 181.5q0 104 -46 141t-182 37q-170 0 -360 -37l-41 242q204 47 403 47q150 0 243 -18.5t152.5 -67t82 -126t22.5 -202.5q0 -60 -4 -103t-19.5 -88.5t-34 -80.5t-59 -87.5t-83 -100t-117.5 -126.5l-250 -284h600v-240h-961z " />
<glyph unicode="3" horiz-adv-x="1075" d="M59 1249v250h877v-246l-307 -348q189 -26 276 -104q52 -44 74 -115t22 -186q0 -134 -18.5 -212t-69.5 -130q-74 -82 -257.5 -122t-561.5 -59l-18 244q281 14 417.5 34.5t184.5 59.5q53 43 53 183q0 127 -53 170q-38 30 -118 45.5t-210 25.5v187l285 323h-576z" />
<glyph unicode="4" horiz-adv-x="1167" d="M43 319v254l512 928h289l-520 -942h372v381h273v-381h141v-240h-141v-319h-273v319h-653z" />
<glyph unicode="5" horiz-adv-x="1105" d="M100 768l23 731h838v-252h-590l-11 -264q451 -26 580 -149q56 -52 77 -128.5t21 -209.5q0 -130 -19.5 -208.5t-70.5 -129.5q-72 -83 -255 -122.5t-568 -58.5l-19 244q293 16 426.5 35t182.5 57q51 42 51 183q0 133 -51 174q-96 77 -615 98z" />
<glyph unicode="6" horiz-adv-x="1155" d="M74 651v140q0 238 26 354t103 190q73 72 254.5 116t492.5 75l31 -240q-273 -32 -406 -60.5t-176 -68.5q-35 -34 -44 -90t-9 -178q55 16 162.5 31.5t189.5 15.5t139 -7t104 -27t74.5 -51.5t47 -84t26.5 -121t7 -166.5q0 -90 -8 -156t-29 -125t-57.5 -98t-93.5 -68 t-137 -42t-187 -13q-86 0 -151.5 8t-118 27t-90 45t-64.5 68.5t-43.5 90t-26 118t-13 143.5t-3.5 174zM346 518q0 -100 9.5 -158.5t38 -95.5t73.5 -50t121 -13q100 0 149 22t69.5 77.5t20.5 168.5q0 152 -34.5 201t-147.5 49q-155 0 -299 -33v-168z" />
<glyph unicode="7" horiz-adv-x="1071" d="M51 1247v252h965v-246l-506 -1253h-301l518 1247h-676z" />
<glyph unicode="8" horiz-adv-x="1193" d="M61 387q0 98 8.5 155t38.5 104t74 77.5t127 73.5q-122 67 -160 137.5t-38 208.5q0 111 27.5 184t89 117t151 62t223.5 18q135 0 224 -18t150.5 -62t88.5 -117t27 -184q0 -134 -39 -199.5t-170 -142.5q67 -32 109 -60.5t71.5 -60t44 -74.5t20 -93t5.5 -126 q0 -227 -123.5 -319.5t-417.5 -92.5q-291 0 -411 92t-120 320zM326 387q0 -102 62.5 -141t205.5 -39q145 0 204.5 38.5t59.5 141.5q0 129 -47.5 172.5t-259.5 126.5l-49 21q-45 -27 -72 -45t-48.5 -41.5t-31.5 -40t-16 -49.5t-7 -61t-1 -83zM379 1143q0 -40 7.5 -67.5 t20.5 -47.5t44.5 -38.5t64.5 -34t95 -40.5q5 -2 7 -3t6 -2.5t7 -2.5l59 -22q99 59 121.5 101t22.5 157q0 88 -56.5 118.5t-181.5 30.5q-119 0 -168 -29.5t-49 -119.5z" />
<glyph unicode="9" horiz-adv-x="1155" d="M57 1022q0 108 12 182.5t45 138.5t91 101t148.5 57.5t219.5 20.5q85 0 150 -8t117.5 -27t89.5 -45t64 -68.5t43.5 -90t26.5 -118t13.5 -143.5t3.5 -174v-139q0 -238 -26 -353.5t-103 -189.5q-141 -136 -747 -193l-31 236q263 28 400 59t180 72q37 35 46 91.5t9 178.5 q-57 -15 -163.5 -30t-188.5 -15q-99 0 -163 11t-113 39t-74.5 81.5t-37.5 130.5t-12 195zM326 1028q0 -149 35.5 -198.5t148.5 -49.5q155 0 299 33v166q0 99 -10 157.5t-38 95.5t-72.5 49.5t-119.5 12.5q-102 0 -151.5 -21t-70.5 -76.5t-21 -168.5z" />
<glyph unicode=":" horiz-adv-x="561" d="M117 0v330h327v-330h-327zM117 647v330h327v-330h-327z" />
<glyph unicode=";" horiz-adv-x="561" d="M59 -209l78 543h342l-297 -608zM117 647v330h327v-330h-327z" />
<glyph unicode="&#x3c;" horiz-adv-x="796" d="M53 684l377 438h277l-377 -438l377 -434h-277z" />
<glyph unicode="=" horiz-adv-x="919" d="M92 397v203h735v-203h-735zM92 782v203h735v-203h-735z" />
<glyph unicode="&#x3e;" horiz-adv-x="796" d="M90 250l377 438l-377 434h277l378 -434l-378 -438h-277z" />
<glyph unicode="?" horiz-adv-x="1048" d="M55 1479q63 16 189 30.5t241 14.5q127 0 212 -12t145 -37.5t92 -73t45.5 -110.5t13.5 -158q0 -83 -10.5 -139t-33.5 -104.5t-72.5 -90.5t-115 -82t-173.5 -94v-168h-264v278q98 49 155 79t106 62t70 53t36.5 53t18.5 59.5t3 74.5q0 100 -46 133t-184 33 q-91 0 -200.5 -12.5t-182.5 -28.5zM293 0v322h321v-322h-321z" />
<glyph unicode="@" horiz-adv-x="1853" d="M86 498q0 179 11.5 300.5t45 229t91 171.5t152.5 111t226.5 66t315.5 19q138 0 245.5 -10.5t193 -35t147.5 -58.5t107 -88t73 -115t44.5 -149.5t22.5 -181t6 -218.5q0 -88 -4.5 -149.5t-18 -120.5t-36 -96.5t-61.5 -71.5t-91 -53t-128 -33.5t-169 -19.5t-217 -5l-30 108 q-77 -51 -166 -82.5t-158 -31.5q-58 0 -98.5 12.5t-72.5 46t-45.5 91t-12 150t21.5 220.5q19 125 41.5 212t47.5 141.5t59 85t69.5 41.5t85.5 11q72 0 173.5 -28t170.5 -66l41 76h220l-123 -807q73 1 122 7t86.5 24t58.5 43t34.5 69.5t17.5 97t4 132.5q0 148 -8.5 245 t-36 179.5t-71 128.5t-120 78.5t-177 43.5t-248.5 11q-112 0 -194 -6t-152 -23.5t-117.5 -42t-85 -67.5t-59 -94t-35 -128.5t-18.5 -163t-5 -204.5t5 -205t18.5 -163.5t35 -128.5t59 -94.5t85 -68.5t117.5 -42.5t152.5 -24t193.5 -6.5h305v-164h-305q-138 0 -245.5 10.5 t-193.5 35.5t-148 59.5t-107.5 90.5t-73.5 120t-45 156.5t-23 191t-6 231.5zM734 346.5q-4 -56.5 5 -88t27 -41.5t53 -10q48 0 102 20t95 47l63 455q-88 43 -196 43q-34 0 -54 -17.5t-38.5 -76.5t-36.5 -178q-16 -97 -20 -153.5z" />
<glyph unicode="A" d="M31 0l487 1507h256l469 -1507h-295l-74 250h-487l-76 -250h-280zM459 485h346l-170 586z" />
<glyph unicode="B" horiz-adv-x="1212" d="M117 0v1499h555q120 0 198.5 -17t132.5 -61t77.5 -118t23.5 -189q0 -157 -50 -234t-163 -100q63 -11 107.5 -32.5t78 -62.5t50 -106.5t16.5 -158.5q0 -227 -97 -323.5t-337 -96.5h-592zM395 229h299q82 0 125 45.5t43 165.5q0 121 -43 168t-125 47h-299v-426zM395 868 h264q85 0 126.5 41.5t41.5 159.5q0 61 -11.5 101t-35 60.5t-51.5 28t-70 7.5h-264v-398z" />
<glyph unicode="C" horiz-adv-x="1056" d="M66 750q0 122 8 219.5t26 174.5t42.5 134.5t62 99t80 68.5t100.5 43t119.5 22.5t140.5 6.5q182 0 350 -31l-43 -244q-167 27 -311 27q-70 0 -115.5 -12t-80 -40t-52.5 -82t-26.5 -131t-8.5 -194v-119q0 -191 25 -289.5t84.5 -139t175.5 -40.5q156 0 307 31l41 -240 q-148 -32 -348 -32q-80 0 -141.5 6.5t-119.5 22.5t-100.5 43t-79 68.5t-61 99t-42 134.5t-25.5 174.5t-8 219.5z" />
<glyph unicode="D" horiz-adv-x="1249" d="M117 -2v1499l485 2q115 0 193 -10t148 -40t112 -81t73 -135t43.5 -201t12.5 -280q0 -122 -7 -218t-24 -172.5t-40 -132t-60 -96t-78.5 -66t-101 -41t-123 -21t-148.5 -5.5zM399 227h207q113 0 172.5 40.5t86 140.5t26.5 290v101q0 191 -26.5 290t-85.5 138t-173 39h-207 v-1039z" />
<glyph unicode="E" horiz-adv-x="1054" d="M117 0v1499h870v-250h-588v-356h455v-246h-455v-401h588v-246h-870z" />
<glyph unicode="F" horiz-adv-x="1026" d="M117 0v1497l872 2v-250h-590v-432h459v-244h-459v-573h-282z" />
<glyph unicode="G" horiz-adv-x="1171" d="M66 750q0 162 14 282t47 205.5t77 140t113 85.5t146.5 43t185.5 12q217 0 391 -33l-39 -246q-196 31 -356 31q-72 0 -118.5 -12t-81 -40t-52.5 -82.5t-26.5 -131t-8.5 -193.5v-123q0 -116 8 -192.5t26.5 -133t53 -86.5t83 -43.5t122.5 -13.5q108 0 180 14v496h252v-698 q-191 -49 -440 -49q-80 0 -141.5 6.5t-119.5 22.5t-100.5 43t-79 68.5t-61 99t-42 134.5t-25.5 174.5t-8 219.5z" />
<glyph unicode="H" horiz-adv-x="1323" d="M117 0v1499h282v-590h521v590h284v-1499h-284v651h-521v-651h-282z" />
<glyph unicode="I" horiz-adv-x="538" d="M129 0v1499h283v-1499h-283z" />
<glyph unicode="J" horiz-adv-x="950" d="M33 18l39 248q11 -2 55 -8.5t77 -11t81 -9t86 -4.5q63 0 98.5 12t59 50t31 99.5t7.5 168.5v936h285v-950q0 -118 -9.5 -202.5t-32.5 -149t-57.5 -104.5t-90 -65t-123.5 -34.5t-164 -9.5q-86 0 -185.5 10t-156.5 24z" />
<glyph unicode="K" horiz-adv-x="1245" d="M117 0v1499h282v-577l465 577h301l-475 -588l502 -911h-313l-369 686l-111 -137v-1v-1v-1v-1v-1v-1v-1v-1v-1v-1v-1v-1v-1v-1v-1v-1v-1v-1v-1v-1v-1v-1v-1v-1v-1v-1v-1v-1v-1v-1v-1v-1v-1v-1v-1v-1v-1v-1v-1v-1v-1v-1v-1v-1v-1v-1v-1v-1v-1v-1v-1v-1v-1v-1v-1v-1v-1v-1 v-1v-1v-1v-1v-1v-1v-1v-1v-1v-1v-1v-1v-1v-1v-1v-1v-1v-1v-1v-1v-1v-1v-1v-1v-1v-1v-1v-1v-1v-1v-1v-1v-1v-1v-1v-1v-1v-1v-1v-1v-2v-1v-1v-1v-1v-1v-1v-1v-1v-1v-1v-1v-1v-2v-1v-1v-1v-1v-1v-1v-1v-2v-1v-1v-1v-1v-1v-1v-2v-1v-1v-1v-1v-2v-1v-1v-1v-1v-1v-2v-1v-1v-1v-2 v-1v-1v-1v-1v-2v-1v-1v-1v-2v-1v-1v-1v-2v-1v-1v-1v-2v-1v-1v-2v-1v-1v-1v-2v-1v-1v-2v-1v-1v-2v-1v-1v-2v-1v-1v-2v-1v-1v-2v-1v-1v-2v-1v-1v-2v-1v-1v-2v-1v-2v-1v-1v-2v-1v-1v-2v-1v-2v-1v-1v-2v-1v-2v-1v-2v-1v-1v-2v-1v-2v-1v-2v-1v-1v-2v-1v-2v-1v-2v-1v-2v-1v-2v-1 v-2v-1v-1v-2v-1v-2v-1v-2v-1v-2v-1v-2v-1v-2v-1v-2v-2v-1v-2v-1v-2v-1v-2v-1v-2v-1v-2v-1v-2v-2v-1v-2v-1v-2v-1v-2v-1v-2v-2v-1v-2v-1v-2v-2v-1v-2v-1v-2v-2v-1v-2v-1v-2v-2v-1v-2v-1v-2v-2v-1v-2v-2v-1v-2v-2v-1v-2v-2v-1v-2v-1v-2v-2v-1v-2v-2v-2v-1v-2v-2v-1v-2v-2v-1 v-2v-2v-1v-2v-2v-2v-1v-2v-2v-1v-2v-2v-2v-1v-2v-2v-1v-2v-2v-2v-1v-2v-2v-2v-1v-2v-2v-2v-1v-2v-2v-2v-2v-1v-2v-2v-2v-1v-2v-2v-2v-2v-1v-2v-2v-2v-2v-1v-2v-2v-2v-2v-2v-1v-2v-2v-2v-2v-2v-1v-2v-2v-2v-2v-2v-2v-1v-2v-2v-2v-2v-2v-2v-2v-1v-2v-2v-2v-2v-2v-2v-8h-282z " />
<glyph unicode="L" horiz-adv-x="1036" d="M113 0v1499h282v-1253h606v-246h-888z" />
<glyph unicode="M" horiz-adv-x="1560" d="M117 0v1499h311l352 -1032l355 1032h311v-1499h-270v930l-297 -869h-213l-295 867v-928h-254z" />
<glyph unicode="N" horiz-adv-x="1308" d="M117 0v1499h266l543 -930v930h266v-1499h-238l-573 979v-979h-264z" />
<glyph unicode="O" horiz-adv-x="1312" d="M66 750q0 161 15.5 282t49.5 206.5t80 141t115.5 87.5t147 44.5t183.5 12.5q107 0 184.5 -12t146.5 -43.5t114.5 -86.5t79 -140.5t48.5 -206t15 -281.5q0 -162 -15 -283t-49 -207t-79.5 -142t-115 -88t-147.5 -44.5t-184 -12.5t-183.5 12t-147 44t-115 87.5t-79.5 141 t-49 206t-15 282.5zM358 688q0 -193 30 -294.5t91.5 -139t177.5 -37.5q70 0 117 11.5t83.5 41t56.5 83.5t30 133.5t10 197.5v121q0 118 -10 199t-30.5 135.5t-57.5 84.5t-84 42t-117 12t-117 -11.5t-83.5 -41t-56.5 -83.5t-30 -133.5t-10 -197.5v-123z" />
<glyph unicode="P" horiz-adv-x="1181" d="M117 0v1499h561q126 0 210 -24.5t142 -84t83.5 -159t25.5 -250.5t-26.5 -252t-85 -161.5t-143.5 -85.5t-210 -25h-277v-457h-280zM397 692h265q48 0 81 11t60 41t40 87.5t13 145.5q0 87 -13.5 144.5t-41.5 87.5t-62 41.5t-82 11.5h-260v-570z" />
<glyph unicode="Q" horiz-adv-x="1312" d="M66 750q0 161 15.5 282t49.5 206.5t80 141t115.5 87.5t147 44.5t183.5 12.5q107 0 184.5 -12t146.5 -43.5t114.5 -86.5t79 -140.5t48.5 -206t15 -281.5q0 -285 -51.5 -446.5t-157.5 -235.5l168 -346h-338l-118 262q-29 -2 -93 -2q-79 0 -140.5 6t-120.5 22t-102 42.5 t-81.5 68t-64 98.5t-44.5 133.5t-27.5 174t-8.5 219.5zM358 686q0 -147 15 -238.5t52 -146t91 -74.5t141 -20q117 0 178 38t90 139.5t29 297.5v123q0 118 -10 199.5t-30.5 137t-57.5 86t-84 43.5t-117 13q-88 0 -141.5 -19t-90 -72.5t-51 -144t-14.5 -237.5v-125z" />
<glyph unicode="R" horiz-adv-x="1243" d="M117 0v1499h549q168 0 265.5 -45.5t145 -154.5t47.5 -300q0 -197 -56 -302.5t-185 -143.5l315 -553h-313l-277 492h-213v-492h-278zM395 725h254q70 0 110.5 21.5t63.5 81.5t23 167q0 81 -12.5 134.5t-39.5 82t-61.5 39.5t-85.5 11h-252v-537z" />
<glyph unicode="S" horiz-adv-x="1116" d="M76 27l43 243q52 -12 182 -28.5t221 -16.5q143 0 190.5 36t47.5 149q0 37 -2.5 60t-13.5 44.5t-24 34t-45 28.5t-64.5 28t-94.5 32q-95 28 -154 49.5t-112 50.5t-81 59.5t-48.5 77t-27.5 102.5t-7 136q0 222 112.5 314t370.5 92q116 0 239 -13t179 -28l-43 -244 q-247 37 -377 37q-114 0 -156 -34.5t-42 -125.5q0 -22 0.5 -38.5t4.5 -32t6.5 -26t13 -22t16 -18.5t24.5 -17t30 -15t39.5 -15.5t46.5 -17t58 -19.5q93 -28 150 -49t112.5 -50t85 -59.5t53 -76.5t32 -103.5t8.5 -136.5q0 -124 -27.5 -205.5t-92.5 -132t-163 -71.5t-248 -21 q-221 0 -442 43z" />
<glyph unicode="T" horiz-adv-x="1169" d="M37 1249v250h1096v-252h-406v-1247h-283v1249h-407z" />
<glyph unicode="U" horiz-adv-x="1286" d="M98 528v971h285v-956q0 -125 25 -189.5t81 -90t162 -25.5q108 0 161.5 23t78 86.5t24.5 191.5v960h273v-967q0 -135 -18 -227.5t-55 -157t-103 -100.5t-152.5 -51.5t-212.5 -15.5q-105 0 -181 9.5t-140 33t-105 63t-70 101t-41 145t-12 196.5z" />
<glyph unicode="V" d="M31 1499h295l313 -1034l324 1034h280l-485 -1507h-258z" />
<glyph unicode="W" horiz-adv-x="1738" d="M31 1499h291l225 -964l231 897h201l231 -902l230 969h268l-373 -1507h-225l-240 940l-243 -940h-230z" />
<glyph unicode="X" horiz-adv-x="1296" d="M47 0l432 807l-391 692h318l264 -471l254 471h282l-389 -733l430 -766h-317l-307 545l-291 -545h-285z" />
<glyph unicode="Y" horiz-adv-x="1286" d="M27 1499h303l321 -668l322 668h287l-476 -983v-516h-282v514z" />
<glyph unicode="Z" horiz-adv-x="1110" d="M55 0v225l656 1024h-635v250h968v-231l-651 -1022h662v-246h-1000z" />
<glyph unicode="[" horiz-adv-x="661" d="M129 -301v1821h479v-234h-229v-1362h229v-225h-479z" />
<glyph unicode="\" horiz-adv-x="737" d="M18 1499h250l453 -1499h-252z" />
<glyph unicode="]" horiz-adv-x="661" d="M55 -76h240v1362h-240v234h477v-1821h-477v225z" />
<glyph unicode="^" horiz-adv-x="706" d="M78 594v231h553v-231h-553z" />
<glyph unicode="_" horiz-adv-x="983" d="M-72 -104h1129v-226h-1129v226z" />
<glyph unicode="`" horiz-adv-x="927" d="M88 1466h361l147 -385h-203z" />
<glyph unicode="a" horiz-adv-x="946" d="M53 311q0 92 16.5 145t57.5 83q53 40 156 55.5t303 15.5v66q0 60 -24 84t-91 24q-124 0 -301 -28l-29 213q154 30 336 30q149 0 231 -30.5t114 -91.5t32 -170v-707h-223l-29 88q-172 -102 -332 -102q-100 0 -158.5 78.5t-58.5 246.5zM324 315q0 -69 20.5 -98t69.5 -29 q79 0 172 41v232q-107 -2 -159 -8t-73 -23q-20 -14 -25 -40t-5 -75z" />
<glyph unicode="b" horiz-adv-x="1024" d="M100 0v1532h271v-635q66 38 163 68t171 30q63 0 106.5 -20.5t77.5 -74t50.5 -154t16.5 -252.5q0 -123 -12 -213t-33 -146.5t-54 -90t-70 -46t-87 -12.5q-88 0 -186.5 23.5t-161.5 53.5l-37 -63h-215zM371 236q110 -27 200 -27q44 0 66.5 18.5t35.5 80t13 181.5t-12.5 179 t-35 75.5t-67.5 16.5q-98 0 -200 -39v-485z" />
<glyph unicode="c" horiz-adv-x="800" d="M59 492q0 155 23 253.5t78.5 155.5t135.5 78.5t206 21.5q124 0 248 -26l-41 -215q-110 20 -211 20q-67 0 -100.5 -21.5t-49.5 -82t-16 -180.5q0 -122 16 -184.5t50.5 -86.5t101.5 -24q108 0 209 24l41 -209q-118 -30 -254 -30q-99 0 -167.5 13.5t-122.5 46.5t-85 91 t-46.5 144.5t-15.5 210.5z" />
<glyph unicode="d" horiz-adv-x="1024" d="M68 485q0 123 12 213.5t33 147t54.5 90.5t71 46.5t87.5 12.5q83 0 173 -21.5t156 -49.5v608h271v-1532h-228l-28 90q-70 -42 -170 -74t-178 -32q-64 0 -108 21t-78.5 74.5t-51 154t-16.5 251.5zM340 485q0 -92 5.5 -145.5t21 -82t34.5 -36.5t54 -8q74 0 200 41v485 q-118 29 -202 29q-42 0 -64.5 -20t-35.5 -82t-13 -181z" />
<glyph unicode="e" horiz-adv-x="913" d="M59 492q0 151 24.5 251t78 157.5t125.5 80.5t178 23q111 0 181.5 -19.5t118.5 -71.5t67.5 -139t19.5 -225v-121h-522q1 -135 41 -181t151 -46q134 0 256 28l37 -206q-140 -37 -291 -37q-89 0 -154 9t-119 31.5t-89 59.5t-59 94t-34 133t-10 179zM332 594h264 q0 95 -12.5 140t-38.5 60t-82 15q-48 0 -74 -15.5t-40.5 -62.5t-16.5 -137z" />
<glyph unicode="f" horiz-adv-x="651" d="M45 750v227h121v168q0 68 4 109t19 82.5t41.5 65.5t75.5 48t117 40.5t169 33.5l51 -246q-52 -10 -84 -18t-57 -18.5t-36.5 -20t-19 -27t-9 -34t-1.5 -46.5v-137h182v-227h-182v-750h-270v750h-121z" />
<glyph unicode="g" horiz-adv-x="1024" d="M68 496q0 121 12 209.5t33 143.5t54.5 88t71 45.5t87.5 12.5q88 0 189 -27t161 -59l31 68h219v-928q0 -120 -15 -194.5t-58 -130t-120.5 -78.5t-200.5 -23q-233 0 -389 23l27 215q150 -23 342 -23q88 0 115.5 41t27.5 172v55q-71 -40 -164.5 -70t-168.5 -30q-51 0 -88 12 t-70 44t-53 86t-31.5 141t-11.5 207zM340 500q0 -118 12 -177t35 -77.5t68 -18.5q108 0 200 45v463q-97 33 -200 33q-44 0 -66.5 -17t-35.5 -75.5t-13 -175.5z" />
<glyph unicode="h" horiz-adv-x="1024" d="M100 0v1532h271v-637q64 39 161 69.5t173 30.5q114 0 168.5 -52.5t54.5 -160.5v-782h-271v682q0 43 -21 60.5t-77 17.5q-44 0 -97.5 -13.5t-90.5 -31.5v-715h-271z" />
<glyph unicode="i" horiz-adv-x="491" d="M109 1118v299h272v-299h-272zM111 0v977h270v-977h-270z" />
<glyph unicode="j" horiz-adv-x="491" d="M-96 -139q73 14 111.5 25.5t61.5 32t28.5 44.5t5.5 70v944h270v-991q0 -74 -9.5 -122t-35 -90.5t-74.5 -69.5t-124.5 -47.5t-188.5 -35.5zM109 1118v299h272v-299h-272z" />
<glyph unicode="k" horiz-adv-x="962" d="M100 0v1532h271v-895l282 340h267l-295 -346l315 -631h-291l-200 426l-78 -92v-1v-1v-1v-1v-1v-1v-1v-1v-1v-1v-1v-1v-1v-1v-1v-1v-1v-1v-1v-1v-1v-1v-1v-1v-1v-1v-1v-1v-1v-1v-1v-1v-1v-1v-1v-1v-1v-1v-1v-1v-1v-1v-1v-1v-1v-1v-1v-1v-1v-1v-1v-1v-1v-1v-1v-1v-1v-1v-1 v-1v-1v-1v-1v-1v-1v-1v-2v-1v-1v-1v-1v-1v-1v-1v-2v-1v-1v-1v-1v-1v-2v-1v-1v-1v-1v-2v-1v-1v-1v-1v-2v-1v-1v-1v-2v-1v-1v-1v-2v-1v-1v-2v-1v-1v-2v-1v-1v-2v-1v-1v-2v-1v-1v-2v-1v-1v-2v-1v-1v-2v-1v-2v-1v-1v-2v-1v-2v-1v-2v-1v-1v-2v-1v-2v-1v-2v-1v-2v-1v-2v-1v-2v-1 v-2v-1v-2v-1v-2v-1v-2v-1v-2v-1v-2v-1v-2v-2v-1v-2v-1v-2v-1v-2v-2v-1v-2v-1v-2v-2v-1v-2v-1v-2v-2v-1v-2v-2v-1v-2v-1v-2v-2v-1v-2v-2v-1v-2v-2v-2v-1v-2v-2v-1v-2v-2v-1v-2v-2v-2v-1v-2v-2v-2v-1v-2v-2v-2v-1v-2v-2v-2v-2v-1v-2v-2v-2v-1v-2v-2v-2v-2v-2v-1v-2v-2v-2v-2 v-2v-1v-2v-2v-2v-2v-2v-1v-2v-10h-271z" />
<glyph unicode="l" horiz-adv-x="491" d="M111 0v1532h270v-1532h-270z" />
<glyph unicode="m" horiz-adv-x="1552" d="M100 0v977h224l26 -92q189 110 350 110q156 0 195 -110q188 110 348 110q114 0 163.5 -52.5t49.5 -166.5v-776h-266v686q0 44 -18 60t-74 16q-95 0 -187 -45v-717h-266v686q0 44 -18 60t-74 16q-45 0 -97.5 -13.5t-88.5 -31.5v-717h-267z" />
<glyph unicode="n" horiz-adv-x="1024" d="M100 0v977h226l26 -88q69 42 172.5 74t180.5 32q115 0 169 -52.5t54 -160.5v-782h-271v682q0 44 -20 61t-76 17q-95 0 -190 -41v-719h-271z" />
<glyph unicode="o" horiz-adv-x="1001" d="M59 492q0 153 23.5 251.5t79 156.5t136 81t204.5 23q125 0 204.5 -22t134.5 -80t78 -155.5t23 -250.5t-23.5 -251.5t-78.5 -157.5t-135.5 -82t-204.5 -23t-204 22.5t-135.5 80.5t-78.5 156t-23 251zM332 494q0 -129 16.5 -194.5t50.5 -89.5t101 -24q68 0 102.5 23t51 88 t16.5 195q0 129 -16.5 193.5t-51 87t-102.5 22.5t-101.5 -21.5t-50 -86t-16.5 -193.5z" />
<glyph unicode="p" horiz-adv-x="1024" d="M100 -375v1352h226l26 -88q72 41 172 73.5t178 32.5q64 0 108 -20.5t78.5 -74t51 -154t16.5 -252.5q0 -153 -17.5 -255t-53 -156.5t-79.5 -75.5t-108 -21q-85 0 -175.5 21t-151.5 48v-430h-271zM371 236q110 -27 200 -27q43 0 65.5 18.5t35 80t12.5 181.5 q0 121 -12.5 179.5t-34.5 75t-68 16.5q-96 0 -198 -39v-485z" />
<glyph unicode="q" horiz-adv-x="1021" d="M66 485q0 123 12 213.5t33 147t54.5 90.5t71 46.5t87.5 12.5q88 0 187.5 -25.5t162.5 -56.5l31 68h217v-1356h-271v455q-68 -37 -163 -66.5t-169 -29.5q-51 0 -88 12.5t-69.5 45.5t-52.5 88.5t-31.5 144t-11.5 210.5zM338 489q0 -120 12 -179.5t34.5 -78t68.5 -18.5 q78 0 198 41v485q-114 29 -200 29q-44 0 -66 -18.5t-34.5 -79.5t-12.5 -181z" />
<glyph unicode="r" horiz-adv-x="731" d="M100 0v977h226q2 -7 5 -18t9.5 -34.5t10.5 -39t3 -15.5q152 95 308 127l32 -252q-230 -17 -323 -49v-696h-271z" />
<glyph unicode="s" horiz-adv-x="862" d="M61 23l33 190q158 -35 316 -35q90 0 118.5 18.5t28.5 77.5q0 37 -12 53.5t-48 29.5t-128 34q-99 22 -154.5 43t-91 58t-46.5 85.5t-11 131.5q0 160 87 226t281 66q216 0 338 -32l-35 -191q-147 27 -295 27q-71 0 -98 -17.5t-27 -66.5q0 -55 30 -72t159 -43 q129 -25 193 -59t89 -90t25 -158q0 -179 -88.5 -245t-310.5 -66q-106 0 -204.5 11t-148.5 24z" />
<glyph unicode="t" horiz-adv-x="688" d="M31 750v227h104v274l271 41v-315h215v-227h-215v-428q0 -65 16 -87t61 -22q59 0 144 12l14 -215q-105 -20 -258 -20q-137 0 -192.5 60t-55.5 212v488h-104z" />
<glyph unicode="u" horiz-adv-x="1021" d="M94 197v780h271v-686q0 -43 21 -60.5t77 -17.5q79 0 188 39v725h271v-977h-224l-30 88q-65 -39 -166 -71.5t-183 -32.5q-115 0 -170 52t-55 161z" />
<glyph unicode="v" horiz-adv-x="954" d="M20 977h275l192 -606l191 606h254l-332 -983h-248z" />
<glyph unicode="w" horiz-adv-x="1374" d="M20 977h265l153 -561l160 561h205l160 -561l153 561h238l-279 -983h-213l-174 604l-174 -604h-215z" />
<glyph unicode="x" horiz-adv-x="962" d="M23 0l303 520l-273 457h301l152 -250l143 250h258l-272 -467l303 -510h-301l-182 303l-172 -303h-260z" />
<glyph unicode="y" horiz-adv-x="956" d="M20 977h275q192 -596 192 -598l193 598h254l-459 -1352h-262l137 406z" />
<glyph unicode="z" horiz-adv-x="860" d="M55 0v193l420 571h-403v213h723v-195l-416 -573h436v-209h-760z" />
<glyph unicode="{" horiz-adv-x="849" d="M27 500v233h168q3 170 13.5 284t37.5 206.5t67 145.5t109.5 89t157 48.5t215.5 13.5v-234q-66 0 -108.5 -3t-83 -16.5t-64 -31.5t-44.5 -57t-30.5 -83.5t-17 -121t-9.5 -159.5t-2 -208q0 -124 2 -207t9.5 -159.5t17 -121.5t30.5 -84t44.5 -57.5t64 -32t83.5 -17t108 -3.5 v-225q-130 1 -217.5 13.5t-157 48.5t-109.5 89.5t-67 148t-37 211t-12 290.5h-168z" />
<glyph unicode="|" horiz-adv-x="749" d="M258 -252v1839h234v-1839h-234z" />
<glyph unicode="}" horiz-adv-x="849" d="M53 -301l2 225q66 0 108.5 3t83 16.5t64 32t44.5 57.5t30.5 84t17 121.5t9.5 159.5t2 208t-2 208t-9.5 159.5t-17 121t-30.5 83.5t-44.5 57t-64 31.5t-83 16.5t-108.5 3v234q128 -1 215 -13.5t156.5 -48.5t110.5 -89.5t68 -146t37.5 -207t12.5 -284.5h170v-229h-170 q-2 -131 -7.5 -226t-19.5 -179.5t-34.5 -141t-54.5 -103.5t-76.5 -74t-105 -46t-134.5 -26t-170 -7z" />
<glyph unicode="~" horiz-adv-x="952" d="M92 1235l72 61q122 107 196 107q44 0 132 -43q81 -47 104 -47q25 0 80 45l59 51l127 -164l-65 -55q-133 -113 -205 -113q-49 0 -137 49q-9 4 -23.5 11.5t-23 11.5t-19 9t-18.5 7t-15 2q-28 0 -80 -45l-59 -51z" />
<glyph unicode="&#xa1;" horiz-adv-x="632" d="M145 0l68 1047h205l67 -1047h-340zM156 1178v321h321v-321h-321z" />
<glyph unicode="&#xa2;" horiz-adv-x="821" d="M61 762q0 245 63 356t214 139v248h223v-237q105 -6 189 -25l-41 -211q-144 21 -209 21q-68 0 -102 -22.5t-50 -83.5t-16 -181q0 -123 15.5 -186.5t50.5 -88t102 -24.5q86 0 209 25l41 -205q-94 -23 -189 -31v-256h-223v266q-102 18 -161 71t-87.5 155t-28.5 270z" />
<glyph unicode="&#xa3;" horiz-adv-x="1089" d="M53 0v246h223q-15 75 -73 401h-150v223h111q-25 164 -25 254q0 148 42 233.5t143 127t278 41.5q222 0 404 -41l-48 -246q-55 12 -158.5 23.5t-189.5 11.5q-109 0 -148.5 -36t-39.5 -132q0 -89 20 -236h355v-223h-318q30 -181 76 -401h453v-246h-955z" />
<glyph unicode="&#xa4;" horiz-adv-x="1165" d="M29 496v184h182v135h-182v184h1h1h1h1h1h1h1h1h1h1h1h1h1h1h1h1h1h1h1h1h1h1h1h1h1h1h1h1h1h1h1h1h1h1h1h1h1h2h1h1h1h1h1h1h2h1h1h1h1h2h1h1h1h2h1h1h1h2h1h1h2h1h1h2h1h1h2h1h2h1h1h2h1h2h1h2h1h2h1h1h2h1h2h2h1h2h1h2h1h2h1h2h2h1h2h1h2h2h1h2h2h1h2h2h1h2h2h1h2h2h1 h2h2h2h1h2h2h2h2h1h2h2h2h2h1h2h2h2h2h2h1h2h2h2h9q17 154 56 255.5t107.5 159.5t156.5 81t215 23q163 0 327 -31l-41 -244q-162 27 -290 27q-124 0 -177.5 -56.5t-70.5 -214.5h373v-184h-385v-135h385v-184h-371q17 -158 71 -215.5t177 -57.5q165 0 284 29l41 -236 q-153 -34 -325 -34q-129 0 -216.5 22.5t-155 80t-105.5 157.5t-54 254h-196z" />
<glyph unicode="&#xa5;" horiz-adv-x="1259" d="M27 1499h309l307 -665l305 665h285l-297 -620h250v-185h-338l-62 -129h400v-184h-418v-381h-283v381h-417v184h397q-22 51 -59 129h-338v185h251z" />
<glyph unicode="&#xa6;" horiz-adv-x="749" d="M258 -250v799h234v-799h-234zM258 788v799h234v-799h-234z" />
<glyph unicode="&#xa7;" horiz-adv-x="1042" d="M94 696q0 98 27 160t90 117q-51 36 -71.5 94.5t-20.5 155.5q0 158 89 228.5t302 70.5q226 0 383 -45l-37 -183q-180 37 -332 37q-90 0 -121.5 -20t-31.5 -74q0 -62 35.5 -79.5t189.5 -43.5q113 -17 179 -37t106.5 -55.5t54.5 -83t14 -125.5q0 -179 -119 -283 q91 -69 91 -243q0 -158 -88.5 -227.5t-301.5 -69.5q-221 0 -376 41l34 182q162 -37 328 -37q92 0 121 19.5t29 76.5q0 63 -32 80t-183 43q-215 32 -287 91.5t-72 209.5zM340 745q0 -39 15.5 -58.5t57.5 -34.5t140 -34q11 -2 41 -7.5t45 -8.5q38 36 52 72t14 92q0 29 -6 45 t-30.5 30.5t-64 24.5t-115.5 25q-40 5 -90 16q-33 -33 -46 -70.5t-13 -91.5z" />
<glyph unicode="&#xa8;" horiz-adv-x="915" d="M137 1090v280h266v-280h-266zM510 1090v280h268v-280h-268z" />
<glyph unicode="&#xa9;" horiz-adv-x="1558" d="M86 748q0 159 12.5 271.5t44 202t81 145t129 92t181 51t244.5 14.5t245 -14.5t182 -51t129.5 -92t81.5 -145t44.5 -202t12.5 -271.5t-12.5 -271t-44.5 -201.5t-81.5 -144.5t-129.5 -91.5t-182 -50.5t-245 -14t-244.5 14t-181 50.5t-129 91.5t-81 144.5t-44 201.5 t-12.5 271zM254 750q0 -107 5 -186.5t18.5 -145t31 -110t50 -78t68.5 -52.5t92.5 -30.5t115 -15t143.5 -3.5t143.5 3.5t115.5 15t93 30.5t68.5 52.5t51 78t32 109.5t18.5 145t5 187t-5 187t-19 145.5t-32 109.5t-50.5 77.5t-68.5 52t-93 30t-115.5 15t-143.5 3.5 t-143.5 -3.5t-115 -15t-92 -30t-68.5 -52t-50.5 -77.5t-31 -109.5t-18.5 -145t-5 -187.5zM434 750q0 122 14.5 206.5t41 138t73.5 83.5t101.5 40.5t136.5 10.5q111 0 233 -21l-37 -182q-125 16 -200 16q-92 0 -121 -50.5t-29 -209.5v-65q0 -157 30 -211.5t122 -54.5 q79 0 200 22l33 -180q-108 -23 -235 -23q-81 0 -136 11t-101 40.5t-72 83.5t-40 138.5t-14 206.5z" />
<glyph unicode="&#xaa;" horiz-adv-x="808" d="M63 958q0 150 66 195q41 29 120.5 39t248.5 12v66q0 47 -17 64.5t-69 17.5q-168 0 -254 -19l-27 168q150 25 279 25q180 0 246.5 -53t66.5 -185v-581h-186l-25 69q-161 -82 -268 -82q-83 0 -132 64.5t-49 199.5zM100 424v180h623v-180h-623zM289 958q0 -54 15.5 -75 t53.5 -21q57 0 140 31v184q-140 0 -181 -20q-18 -10 -23 -31.5t-5 -67.5z" />
<glyph unicode="&#xab;" horiz-adv-x="1116" d="M98 479l224 434h231l-195 -434l197 -434h-233zM537 479l223 434h233l-196 -434l196 -434h-233z" />
<glyph unicode="&#xac;" horiz-adv-x="1171" d="M66 750q0 162 14 282t47 205.5t77 140t113 85.5t146.5 43t185.5 12q217 0 391 -33l-39 -246q-196 31 -356 31q-72 0 -118.5 -12t-81 -40t-52.5 -82.5t-26.5 -131t-8.5 -193.5v-123q0 -116 8 -192.5t26.5 -133t53 -86.5t83 -43.5t122.5 -13.5q105 0 187 14v324h-238v231 h483v-757q-191 -49 -440 -49q-80 0 -141.5 6.5t-119.5 22.5t-100.5 43t-79 68.5t-61 99t-42 134.5t-25.5 174.5t-8 219.5z" />
<glyph unicode="&#xad;" horiz-adv-x="706" d="M78 465v229h553v-229h-553z" />
<glyph unicode="&#xae;" horiz-adv-x="1558" d="M86 748q0 159 12.5 271.5t44 202t81 145t129 92t181 51t244.5 14.5t245 -14.5t182 -51t129.5 -92t81.5 -145t44.5 -202t12.5 -271.5t-12.5 -271t-44.5 -201.5t-81.5 -144.5t-129.5 -91.5t-182 -50.5t-245 -14t-244.5 14t-181 50.5t-129 91.5t-81 144.5t-44 201.5 t-12.5 271zM254 750q0 -107 5 -186.5t18.5 -145t31 -110t50 -78t68.5 -52.5t92.5 -30.5t115 -15t143.5 -3.5t143.5 3.5t115.5 15t93 30.5t68.5 52.5t51 78t32 109.5t18.5 145t5 187t-5 187t-19 145.5t-32 109.5t-50.5 77.5t-68.5 52t-93 30t-115.5 15t-143.5 3.5 t-143.5 -3.5t-115 -15t-92 -30t-68.5 -52t-50.5 -77.5t-31 -109.5t-18.5 -145t-5 -187.5zM459 299v911h360q141 0 206 -69t65 -238q0 -107 -28 -175t-101 -97l196 -332h-225l-172 291h-98v-291h-203zM662 748h137q48 0 69 34.5t21 116.5q0 79 -21 110t-67 31h-139v-292z" />
<glyph unicode="&#xaf;" horiz-adv-x="931" d="M160 1094v254h614v-254h-614z" />
<glyph unicode="&#xb0;" horiz-adv-x="866" d="M55 1102q0 232 88 327t293 95q204 0 290.5 -93t86.5 -325t-88.5 -327t-292.5 -95q-205 0 -291 93t-86 325zM283 1106q0 -107 15.5 -161t46 -71.5t91.5 -17.5q60 0 89.5 17t45 70.5t15.5 160.5q0 106 -16 159t-46.5 70t-91.5 17q-60 0 -89.5 -16.5t-44.5 -69t-15 -158.5z " />
<glyph unicode="&#xb1;" horiz-adv-x="1658" d="M45 750v227h121v115q0 68 3.5 108.5t18 82.5t40 65.5t72.5 47.5t112.5 40t162.5 32l50 -245q-48 -10 -76.5 -17t-52 -17t-34 -18.5t-17.5 -26t-8 -33.5t-1 -46v-88h289v162q0 100 12 159t52 108t115 75.5t200 42.5l47 -248q-55 -10 -85 -20.5t-46.5 -30.5t-20.5 -42.5 t-4 -66.5v-139h152v-227h-152v-750h-270v750h-289v-750h-270v750h-121zM1284 0v1532h270v-1532h-270z" />
<glyph unicode="&#xb2;" horiz-adv-x="811" d="M78 522v174l262 287q95 101 116 136.5t21 99.5q0 51 -23 68.5t-89 17.5q-101 0 -244 -27l-33 197q136 36 279 36q196 0 264.5 -57.5t68.5 -222.5q0 -107 -36 -170.5t-170 -206.5l-107 -133h330v-199h-639z" />
<glyph unicode="&#xb3;" horiz-adv-x="811" d="M80 1296v201h590v-186l-176 -189q110 -22 149 -61q68 -59 68 -205q0 -86 -14 -138.5t-48 -86.5q-48 -55 -171 -82.5t-374 -36.5l-14 201q188 8 270.5 18.5t110.5 32.5q11 8 16 25t6 30t1 39q0 69 -21 88q-16 12 -50 20t-61.5 11t-97.5 10v141l162 168h-346z" />
<glyph unicode="&#xb4;" horiz-adv-x="929" d="M334 1081l145 385h363l-305 -385h-203z" />
<glyph unicode="&#xb6;" horiz-adv-x="1122" d="M45 1018q0 141 25 234.5t80 148t132.5 76.5t192.5 22l535 -2v-1497h-271v541h-135v-541h-262v557q-73 10 -125.5 37.5t-92 80.5t-59.5 138.5t-20 204.5zM317 1008q0 -77 11 -128t34 -78.5t52 -38.5t71 -11h254v512h-250q-86 0 -129 -55.5t-43 -200.5z" />
<glyph unicode="&#xb7;" horiz-adv-x="577" d="M117 567v324h344v-324h-344z" />
<glyph unicode="&#xb8;" horiz-adv-x="954" d="M272 -203q113 15 172 45l-24 191l188 28l45 -344q-42 -37 -131.5 -70.5t-218.5 -49.5z" />
<glyph unicode="&#xb9;" horiz-adv-x="614" d="M96 1296v203h355v-975h-228v772h-127z" />
<glyph unicode="&#xba;" horiz-adv-x="835" d="M55 1102q0 124 19 204t64 128.5t112 68t170 19.5q137 0 212.5 -36t111.5 -125.5t36 -254.5t-37 -256.5t-114 -128.5t-213 -37q-103 0 -168.5 18.5t-110.5 66.5t-63.5 128t-18.5 205zM98 424v180h639v-180h-639zM285 1106q0 -110 12 -165t39.5 -75t81.5 -20q55 0 82 19.5 t39 73.5t12 163t-12.5 162.5t-39 72.5t-81.5 19t-81.5 -18t-39 -70.5t-12.5 -161.5z" />
<glyph unicode="&#xbb;" horiz-adv-x="1116" d="M123 45l194 436l-194 432h231l224 -432l-224 -436h-231zM561 913h234l223 -432l-223 -436h-232l195 436z" />
<glyph unicode="&#xbc;" horiz-adv-x="1705" d="M96 1296v203h355v-975h-228v772h-127zM403 0l506 1499h238l-504 -1499h-240zM913 197v188l324 590h231l-325 -590h176v195h213v-195h88v-188h-88v-197h-213v197h-406z" />
<glyph unicode="&#xbd;" horiz-adv-x="1785" d="M96 1296v203h355v-975h-228v772h-127zM403 0l506 1499h238l-504 -1499h-240zM1034 0v174l264 287q97 103 117.5 136.5t20.5 96.5q0 53 -23 70.5t-90 17.5q-90 0 -242 -26l-34 196q140 37 278 37q195 0 263.5 -58t68.5 -224q0 -57 -6.5 -94t-32.5 -81.5t-60 -84 t-106 -115.5l-109 -133h334v-199h-643z" />
<glyph unicode="&#xbe;" horiz-adv-x="1875" d="M86 1296v201h588v-186l-176 -189q110 -22 149 -61q68 -59 68 -205q0 -87 -13 -139t-47 -86q-51 -55 -173 -82.5t-373 -36.5l-15 201q189 8 272 18.5t111 32.5q23 21 23 94q0 70 -23 88q-16 12 -50 20t-61.5 11t-97.5 10l2 141l162 168h-346zM573 0l506 1499h238 l-504 -1499h-240zM1083 197v188l324 590h231l-325 -590h176v195h213v-195h88v-188h-88v-197h-213v197h-406z" />
<glyph unicode="&#xbf;" horiz-adv-x="1048" d="M55 373q0 68 6 116.5t24 93.5t45 78t75.5 70t107 70.5t148.5 77.5v170h262v-279q-99 -49 -154.5 -78.5t-104.5 -62t-70 -53t-36.5 -52.5t-18.5 -59.5t-3 -75.5q0 -100 45.5 -133t183.5 -33q94 0 204 12.5t179 30.5l43 -241q-63 -16 -189 -30.5t-241 -14.5q-127 0 -212 12 t-144.5 37.5t-91 73t-45 111t-13.5 159.5zM434 1182v321h322v-321h-322z" />
<glyph unicode="&#xc0;" d="M31 0l487 1507h256l469 -1507h-295l-74 250h-487l-76 -250h-280zM260 1968h361l147 -385h-203zM459 485h346l-170 586z" />
<glyph unicode="&#xc1;" d="M31 0l487 1507h256l469 -1507h-295l-74 250h-487l-76 -250h-280zM459 485h346l-170 586zM518 1583l146 385h362l-305 -385h-203z" />
<glyph unicode="&#xc2;" d="M31 0l487 1507h256l469 -1507h-295l-74 250h-487l-76 -250h-280zM274 1569l238 387h242l239 -387h-190l-172 170l-168 -170h-189zM459 485h346l-170 586z" />
<glyph unicode="&#xc3;" d="M31 0l487 1507h256l469 -1507h-295l-74 250h-487l-76 -250h-280zM260 1737l72 61q122 107 196 107q43 0 131 -43q81 -47 105 -47q25 0 80 45l59 51l127 -164l-65 -55q-133 -113 -205 -113q-49 0 -137 49q-9 4 -23.5 11.5t-23 11.5t-19 9t-18.5 7t-15 2q-28 0 -80 -45 l-59 -51zM459 485h346l-170 586z" />
<glyph unicode="&#xc4;" d="M31 0l487 1507h256l469 -1507h-295l-74 250h-487l-76 -250h-280zM88 1227v272h258v-272h-258zM459 485h346l-170 586zM942 1227v270h258v-270h-258z" />
<glyph unicode="&#xc5;" d="M31 0l461 1421q-54 23 -77.5 72t-23.5 133q0 128 57.5 180t194.5 52q136 0 194 -52t58 -180q0 -82 -22.5 -130t-71.5 -71l442 -1425h-295l-74 250h-487l-76 -250h-280zM459 485h346l-170 586zM547 1626q0 -69 18.5 -91t77.5 -22t77.5 22t18.5 91q0 70 -19 93.5t-77 23.5 t-77 -23.5t-19 -93.5z" />
<glyph unicode="&#xc6;" horiz-adv-x="1861" d="M31 0l778 1499h985v-250h-577v-356h442v-246h-442v-401h577v-246h-850v377h-430l-190 -377h-293zM633 616h311v605z" />
<glyph unicode="&#xc7;" horiz-adv-x="1056" d="M66 750q0 122 8 219.5t26 174.5t42.5 134.5t62 99t80 68.5t100.5 43t119.5 22.5t140.5 6.5q182 0 350 -31l-43 -244q-167 27 -311 27q-70 0 -115.5 -12t-80 -40t-52.5 -82t-26.5 -131t-8.5 -194v-119q0 -191 25 -289.5t84.5 -139t175.5 -40.5q156 0 307 31l41 -240 q-129 -29 -321 -32l35 -265q-42 -37 -132 -70.5t-219 -49.5l-30 200q113 15 172 45l-19 150q-112 14 -186 56.5t-126.5 129.5t-75.5 226.5t-23 345.5z" />
<glyph unicode="&#xc8;" horiz-adv-x="1054" d="M117 0v1499h870v-250h-588v-356h455v-246h-455v-401h588v-246h-870zM152 1968h360l147 -385h-202z" />
<glyph unicode="&#xc9;" horiz-adv-x="1054" d="M117 0v1499h870v-250h-588v-356h455v-246h-455v-401h588v-246h-870zM397 1583l146 385h362l-305 -385h-203z" />
<glyph unicode="&#xca;" horiz-adv-x="1054" d="M117 0v1499h870v-250h-588v-356h455v-246h-455v-401h588v-246h-870zM166 1583l237 387h242l240 -387h-191l-172 170l-168 -170h-188z" />
<glyph unicode="&#xcb;" horiz-adv-x="1054" d="M117 0v1499h870v-250h-588v-356h455v-246h-455v-401h588v-246h-870zM207 1591v281h266v-281h-266zM580 1591v281h268v-281h-268z" />
<glyph unicode="&#xcc;" horiz-adv-x="538" d="M-106 1968h360l147 -385h-202zM129 0v1499h283v-1499h-283z" />
<glyph unicode="&#xcd;" horiz-adv-x="538" d="M129 0v1499h283v-1499h-283zM139 1583l146 385h362l-305 -385h-203z" />
<glyph unicode="&#xce;" horiz-adv-x="538" d="M-92 1583l237 387h242l240 -387h-191l-172 170l-168 -170h-188zM129 0v1499h283v-1499h-283z" />
<glyph unicode="&#xcf;" horiz-adv-x="538" d="M-51 1591v281h266v-281h-266zM129 0v1499h283v-1499h-283zM322 1591v281h268v-281h-268z" />
<glyph unicode="&#xd0;" horiz-adv-x="1292" d="M39 659v205h119v633l489 2q114 0 192 -10t147.5 -40t111 -81t72 -135t43 -201t12.5 -280q0 -122 -7 -218t-23.5 -172.5t-39.5 -132t-59.5 -96t-78 -66t-100.5 -41t-122.5 -21t-147.5 -5.5l-489 -2v661h-119zM442 221h207q85 0 138 21t87 77t47 145.5t13 233.5v101 q0 192 -26 292t-85.5 140.5t-173.5 40.5h-207v-408h207v-205h-207v-438z" />
<glyph unicode="&#xd1;" horiz-adv-x="1308" d="M117 0v1499h266l543 -930v930h266v-1499h-238l-573 979v-979h-264zM276 1737l72 61q122 107 197 107q43 0 131 -43q81 -47 104 -47q25 0 80 45l60 51l127 -164l-66 -55q-133 -113 -205 -113q-49 0 -137 49q-9 5 -28.5 14.5t-28.5 14t-21 8.5t-20 4q-28 0 -80 -45l-60 -51 z" />
<glyph unicode="&#xd2;" horiz-adv-x="1312" d="M66 750q0 161 15.5 282t49.5 206.5t80 141t115.5 87.5t147 44.5t183.5 12.5q107 0 184.5 -12t146.5 -43.5t114.5 -86.5t79 -140.5t48.5 -206t15 -281.5q0 -162 -15 -283t-49 -207t-79.5 -142t-115 -88t-147.5 -44.5t-184 -12.5t-183.5 12t-147 44t-115 87.5t-79.5 141 t-49 206t-15 282.5zM324 1968h360l147 -385h-202zM358 688q0 -193 30 -294.5t91.5 -139t177.5 -37.5q70 0 117 11.5t83.5 41t56.5 83.5t30 133.5t10 197.5v121q0 118 -10 199t-30.5 135.5t-57.5 84.5t-84 42t-117 12t-117 -11.5t-83.5 -41t-56.5 -83.5t-30 -133.5 t-10 -197.5v-123z" />
<glyph unicode="&#xd3;" horiz-adv-x="1312" d="M66 750q0 161 15.5 282t49.5 206.5t80 141t115.5 87.5t147 44.5t183.5 12.5q107 0 184.5 -12t146.5 -43.5t114.5 -86.5t79 -140.5t48.5 -206t15 -281.5q0 -162 -15 -283t-49 -207t-79.5 -142t-115 -88t-147.5 -44.5t-184 -12.5t-183.5 12t-147 44t-115 87.5t-79.5 141 t-49 206t-15 282.5zM358 688q0 -193 30 -294.5t91.5 -139t177.5 -37.5q70 0 117 11.5t83.5 41t56.5 83.5t30 133.5t10 197.5v121q0 118 -10 199t-30.5 135.5t-57.5 84.5t-84 42t-117 12t-117 -11.5t-83.5 -41t-56.5 -83.5t-30 -133.5t-10 -197.5v-123zM483 1583l146 385h362 l-305 -385h-203z" />
<glyph unicode="&#xd4;" horiz-adv-x="1312" d="M66 750q0 161 15.5 282t49.5 206.5t80 141t115.5 87.5t147 44.5t183.5 12.5q107 0 184.5 -12t146.5 -43.5t114.5 -86.5t79 -140.5t48.5 -206t15 -281.5q0 -162 -15 -283t-49 -207t-79.5 -142t-115 -88t-147.5 -44.5t-184 -12.5t-183.5 12t-147 44t-115 87.5t-79.5 141 t-49 206t-15 282.5zM295 1583l237 387h242l240 -387h-191l-172 170l-168 -170h-188zM358 688q0 -193 30 -294.5t91.5 -139t177.5 -37.5q70 0 117 11.5t83.5 41t56.5 83.5t30 133.5t10 197.5v121q0 118 -10 199t-30.5 135.5t-57.5 84.5t-84 42t-117 12t-117 -11.5t-83.5 -41 t-56.5 -83.5t-30 -133.5t-10 -197.5v-123z" />
<glyph unicode="&#xd5;" horiz-adv-x="1312" d="M66 750q0 161 15.5 282t49.5 206.5t80 141t115.5 87.5t147 44.5t183.5 12.5q107 0 184.5 -12t146.5 -43.5t114.5 -86.5t79 -140.5t48.5 -206t15 -281.5q0 -162 -15 -283t-49 -207t-79.5 -142t-115 -88t-147.5 -44.5t-184 -12.5t-183.5 12t-147 44t-115 87.5t-79.5 141 t-49 206t-15 282.5zM281 1737l71 61q122 107 197 107q43 0 131 -43q81 -47 104 -47q25 0 80 45l60 51l127 -164l-66 -55q-133 -113 -205 -113q-49 0 -137 49q-9 5 -28.5 14.5t-28.5 14t-21 8.5t-20 4q-28 0 -80 -45l-59 -51zM358 688q0 -193 30 -294.5t91.5 -139 t177.5 -37.5q70 0 117 11.5t83.5 41t56.5 83.5t30 133.5t10 197.5v121q0 118 -10 199t-30.5 135.5t-57.5 84.5t-84 42t-117 12t-117 -11.5t-83.5 -41t-56.5 -83.5t-30 -133.5t-10 -197.5v-123z" />
<glyph unicode="&#xd6;" horiz-adv-x="1312" d="M66 750q0 161 15.5 282t49.5 206.5t80 141t115.5 87.5t147 44.5t183.5 12.5q107 0 184.5 -12t146.5 -43.5t114.5 -86.5t79 -140.5t48.5 -206t15 -281.5q0 -162 -15 -283t-49 -207t-79.5 -142t-115 -88t-147.5 -44.5t-184 -12.5t-183.5 12t-147 44t-115 87.5t-79.5 141 t-49 206t-15 282.5zM336 1591v281h266v-281h-266zM358 688q0 -193 30 -294.5t91.5 -139t177.5 -37.5q70 0 117 11.5t83.5 41t56.5 83.5t30 133.5t10 197.5v121q0 118 -10 199t-30.5 135.5t-57.5 84.5t-84 42t-117 12t-117 -11.5t-83.5 -41t-56.5 -83.5t-30 -133.5 t-10 -197.5v-123zM709 1591v281h268v-281h-268z" />
<glyph unicode="&#xd7;" horiz-adv-x="983" d="M84 430l260 258l-260 258l149 148l259 -258l258 258l149 -148l-260 -258l260 -258l-149 -149l-258 260l-259 -260z" />
<glyph unicode="&#xd8;" horiz-adv-x="1312" d="M66 750q0 161 15.5 282t49.5 206.5t80 141t115.5 87.5t147 44.5t183.5 12.5q173 0 273 -33l84 164h209l-133 -260q79 -83 117 -237t38 -404q0 -162 -15 -283t-49 -207t-79.5 -142t-115 -88t-147.5 -44.5t-184 -12.5q-173 0 -276 33l-84 -164h-207l133 260 q-79 84 -117 239t-38 405zM354 688q0 -161 23 -276l434 848q-59 26 -156 26q-70 0 -117.5 -12.5t-84.5 -42.5t-57.5 -85t-31 -136t-10.5 -199v-123zM496 236q62 -29 161 -29q117 0 179 38.5t91 140.5t29 298v121q0 180 -24 285z" />
<glyph unicode="&#xd9;" horiz-adv-x="1286" d="M98 528v971h285v-956q0 -125 25 -189.5t81 -90t162 -25.5q108 0 161.5 23t78 86.5t24.5 191.5v960h273v-967q0 -135 -18 -227.5t-55 -157t-103 -100.5t-152.5 -51.5t-212.5 -15.5q-105 0 -181 9.5t-140 33t-105 63t-70 101t-41 145t-12 196.5zM266 1968h361l147 -385 h-203z" />
<glyph unicode="&#xda;" horiz-adv-x="1286" d="M98 528v971h285v-956q0 -125 25 -189.5t81 -90t162 -25.5q108 0 161.5 23t78 86.5t24.5 191.5v960h273v-967q0 -135 -18 -227.5t-55 -157t-103 -100.5t-152.5 -51.5t-212.5 -15.5q-105 0 -181 9.5t-140 33t-105 63t-70 101t-41 145t-12 196.5zM512 1583l145 385h363 l-305 -385h-203z" />
<glyph unicode="&#xdb;" horiz-adv-x="1286" d="M98 528v971h285v-956q0 -125 25 -189.5t81 -90t162 -25.5q108 0 161.5 23t78 86.5t24.5 191.5v960h273v-967q0 -135 -18 -227.5t-55 -157t-103 -100.5t-152.5 -51.5t-212.5 -15.5q-105 0 -181 9.5t-140 33t-105 63t-70 101t-41 145t-12 196.5zM283 1583l237 387h242 l239 -387h-190l-172 170l-168 -170h-188z" />
<glyph unicode="&#xdc;" horiz-adv-x="1286" d="M98 528v971h285v-956q0 -125 25 -189.5t81 -90t162 -25.5q108 0 161.5 23t78 86.5t24.5 191.5v960h273v-967q0 -135 -18 -227.5t-55 -157t-103 -100.5t-152.5 -51.5t-212.5 -15.5q-105 0 -181 9.5t-140 33t-105 63t-70 101t-41 145t-12 196.5zM324 1591v281h266v-281 h-266zM696 1591v281h269v-281h-269z" />
<glyph unicode="&#xdd;" horiz-adv-x="1286" d="M27 1499h303l321 -668l322 668h287l-476 -983v-516h-282v514zM514 1583l145 385h363l-305 -385h-203z" />
<glyph unicode="&#xde;" horiz-adv-x="1175" d="M117 0v1499h282v-219h299q116 0 193.5 -22t134 -78t82 -153.5t25.5 -246.5q0 -148 -26.5 -247t-83 -156t-134.5 -80t-193 -23h-297v-274h-282zM399 508h285q84 0 126 58.5t42 209.5t-43.5 209.5t-128.5 58.5h-281v-536z" />
<glyph unicode="&#xdf;" horiz-adv-x="1169" d="M45 756v221h121v252q0 166 87 235.5t306 69.5q122 0 197.5 -13t129 -48t75.5 -96.5t22 -159.5q0 -80 -17.5 -132.5t-56 -94.5t-114.5 -97q191 -34 256 -115q39 -46 56 -117.5t17 -189.5q0 -136 -17.5 -213.5t-64.5 -124.5q-61 -60 -171 -91.5t-302 -53.5l-32 223 q124 16 189 34.5t95 49.5q26 27 32.5 63.5t6.5 112.5q0 74 -7 112t-30 64q-29 29 -84.5 46.5t-154.5 31.5v186q91 104 116 158t25 145q0 67 -36.5 86t-139.5 19q-63 0 -88 -24.5t-25 -90.5v-1204h-270v756h-121z" />
<glyph unicode="&#xe0;" horiz-adv-x="946" d="M53 311q0 92 16.5 145t57.5 83q53 40 156 55.5t303 15.5v66q0 60 -24 84t-91 24q-124 0 -301 -28l-29 213q154 30 336 30q149 0 231 -30.5t114 -91.5t32 -170v-707h-223l-29 88q-172 -102 -332 -102q-100 0 -158.5 78.5t-58.5 246.5zM129 1466h360l148 -385h-203z M324 315q0 -69 20.5 -98t69.5 -29q79 0 172 41v232q-107 -2 -159 -8t-73 -23q-20 -14 -25 -40t-5 -75z" />
<glyph unicode="&#xe1;" horiz-adv-x="946" d="M53 311q0 92 16.5 145t57.5 83q53 40 156 55.5t303 15.5v66q0 60 -24 84t-91 24q-124 0 -301 -28l-29 213q154 30 336 30q149 0 231 -30.5t114 -91.5t32 -170v-707h-223l-29 88q-172 -102 -332 -102q-100 0 -158.5 78.5t-58.5 246.5zM317 1081l146 385h362l-305 -385 h-203zM324 315q0 -69 20.5 -98t69.5 -29q79 0 172 41v232q-107 -2 -159 -8t-73 -23q-20 -14 -25 -40t-5 -75z" />
<glyph unicode="&#xe2;" horiz-adv-x="946" d="M53 311q0 92 16.5 145t57.5 83q53 40 156 55.5t303 15.5v66q0 60 -24 84t-91 24q-124 0 -301 -28l-29 213q154 30 336 30q149 0 231 -30.5t114 -91.5t32 -170v-707h-223l-29 88q-172 -102 -332 -102q-100 0 -158.5 78.5t-58.5 246.5zM115 1081l237 387h242l240 -387h-191 l-172 170l-168 -170h-188zM324 315q0 -69 20.5 -98t69.5 -29q79 0 172 41v232q-107 -2 -159 -8t-73 -23q-20 -14 -25 -40t-5 -75z" />
<glyph unicode="&#xe3;" horiz-adv-x="946" d="M53 311q0 92 16.5 145t57.5 83q53 40 156 55.5t303 15.5v66q0 60 -24 84t-91 24q-124 0 -301 -28l-29 213q154 30 336 30q149 0 231 -30.5t114 -91.5t32 -170v-707h-223l-29 88q-172 -102 -332 -102q-100 0 -158.5 78.5t-58.5 246.5zM98 1235l72 61q122 107 197 107 q43 0 131 -43q81 -47 104 -47q25 0 80 45l59 51l127 -164l-65 -55q-133 -113 -205 -113q-49 0 -137 49q-9 4 -23.5 11.5t-23 11.5t-19 9t-18.5 7t-15 2q-27 0 -79 -45l-60 -51zM324 315q0 -69 20.5 -98t69.5 -29q79 0 172 41v232q-107 -2 -159 -8t-73 -23q-20 -14 -25 -40 t-5 -75z" />
<glyph unicode="&#xe4;" horiz-adv-x="946" d="M53 311q0 92 16.5 145t57.5 83q53 40 156 55.5t303 15.5v66q0 60 -24 84t-91 24q-124 0 -301 -28l-29 213q154 30 336 30q149 0 231 -30.5t114 -91.5t32 -170v-707h-223l-29 88q-172 -102 -332 -102q-100 0 -158.5 78.5t-58.5 246.5zM156 1090v280h266v-280h-266z M324 315q0 -69 20.5 -98t69.5 -29q79 0 172 41v232q-107 -2 -159 -8t-73 -23q-20 -14 -25 -40t-5 -75zM528 1090v280h269v-280h-269z" />
<glyph unicode="&#xe5;" horiz-adv-x="946" d="M53 311q0 92 16.5 145t57.5 83q53 40 156 55.5t303 15.5v66q0 60 -24 84t-91 24q-124 0 -301 -28l-29 213q154 30 336 30q149 0 231 -30.5t114 -91.5t32 -170v-707h-223l-29 88q-172 -102 -332 -102q-100 0 -158.5 78.5t-58.5 246.5zM223 1298q0 128 57.5 180t194.5 52 q136 0 194 -52t58 -180q0 -127 -58 -177t-194 -50q-138 0 -195 50t-57 177zM324 315q0 -69 20.5 -98t69.5 -29q79 0 172 41v232q-107 -2 -159 -8t-73 -23q-20 -14 -25 -40t-5 -75zM379 1298q0 -69 18.5 -90.5t77.5 -21.5t77.5 21.5t18.5 90.5q0 70 -19 93.5t-77 23.5 t-77 -23.5t-19 -93.5z" />
<glyph unicode="&#xe6;" horiz-adv-x="1429" d="M53 309q0 90 16.5 144t57.5 84q55 41 156 56t303 15v68q0 60 -24 84t-91 24q-122 0 -299 -28l-29 213q154 30 334 30q204 0 268 -73q90 78 240 78q111 0 181.5 -19.5t118.5 -71.5t67.5 -138.5t19.5 -223.5v-119h-522q1 -138 40.5 -184.5t149.5 -46.5q136 0 258 28 l37 -206q-144 -37 -291 -37q-152 0 -244 28.5t-141 96.5q-83 -56 -188.5 -90.5t-200.5 -34.5q-100 0 -158.5 78t-58.5 245zM324 313q0 -68 20.5 -96.5t69.5 -28.5q97 0 192 52q-17 83 -20 219q-106 0 -159 -7t-75 -26q-19 -14 -23.5 -38t-4.5 -75zM850 596h266 q0 94 -12.5 139t-38.5 59.5t-82 14.5q-71 0 -100 -41.5t-33 -171.5z" />
<glyph unicode="&#xe7;" horiz-adv-x="800" d="M59 492q0 155 23 253.5t78.5 155.5t135.5 78.5t206 21.5q124 0 248 -26l-41 -215q-110 20 -211 20q-67 0 -100.5 -21.5t-49.5 -82t-16 -180.5q0 -122 16 -184.5t50.5 -86.5t101.5 -24q108 0 209 24l41 -209q-91 -24 -209 -30l34 -269q-42 -37 -131.5 -70.5t-218.5 -49.5 l-30 200q113 15 172 45l-21 154q-157 25 -222 135t-65 361z" />
<glyph unicode="&#xe8;" horiz-adv-x="913" d="M59 492q0 151 24.5 251t78 157.5t125.5 80.5t178 23q111 0 181.5 -19.5t118.5 -71.5t67.5 -139t19.5 -225v-121h-522q1 -135 41 -181t151 -46q134 0 256 28l37 -206q-140 -37 -291 -37q-89 0 -154 9t-119 31.5t-89 59.5t-59 94t-34 133t-10 179zM121 1466h360l148 -385 h-203zM332 594h264q0 95 -12.5 140t-38.5 60t-82 15q-48 0 -74 -15.5t-40.5 -62.5t-16.5 -137z" />
<glyph unicode="&#xe9;" horiz-adv-x="913" d="M59 492q0 151 24.5 251t78 157.5t125.5 80.5t178 23q111 0 181.5 -19.5t118.5 -71.5t67.5 -139t19.5 -225v-121h-522q1 -135 41 -181t151 -46q134 0 256 28l37 -206q-140 -37 -291 -37q-89 0 -154 9t-119 31.5t-89 59.5t-59 94t-34 133t-10 179zM281 1081l145 385h362 l-305 -385h-202zM332 594h264q0 95 -12.5 140t-38.5 60t-82 15q-48 0 -74 -15.5t-40.5 -62.5t-16.5 -137z" />
<glyph unicode="&#xea;" horiz-adv-x="913" d="M59 492q0 151 24.5 251t78 157.5t125.5 80.5t178 23q111 0 181.5 -19.5t118.5 -71.5t67.5 -139t19.5 -225v-121h-522q1 -135 41 -181t151 -46q134 0 256 28l37 -206q-140 -37 -291 -37q-89 0 -154 9t-119 31.5t-89 59.5t-59 94t-34 133t-10 179zM94 1081l238 387h241 l240 -387h-190l-172 170l-168 -170h-189zM332 594h264q0 95 -12.5 140t-38.5 60t-82 15q-48 0 -74 -15.5t-40.5 -62.5t-16.5 -137z" />
<glyph unicode="&#xeb;" horiz-adv-x="913" d="M59 492q0 151 24.5 251t78 157.5t125.5 80.5t178 23q111 0 181.5 -19.5t118.5 -71.5t67.5 -139t19.5 -225v-121h-522q1 -135 41 -181t151 -46q134 0 256 28l37 -206q-140 -37 -291 -37q-89 0 -154 9t-119 31.5t-89 59.5t-59 94t-34 133t-10 179zM135 1090v280h266v-280 h-266zM332 594h264q0 95 -12.5 140t-38.5 60t-82 15q-48 0 -74 -15.5t-40.5 -62.5t-16.5 -137zM508 1090v280h268v-280h-268z" />
<glyph unicode="&#xec;" horiz-adv-x="491" d="M-131 1466h360l148 -385h-203zM111 0v977h270v-977h-270z" />
<glyph unicode="&#xed;" horiz-adv-x="491" d="M111 0v977h270v-977h-270zM115 1081l145 385h363l-306 -385h-202z" />
<glyph unicode="&#xee;" horiz-adv-x="491" d="M-115 1081l238 387h242l239 -387h-190l-172 170l-168 -170h-189zM111 0v977h270v-977h-270z" />
<glyph unicode="&#xef;" horiz-adv-x="491" d="M-74 1090v280h267v-280h-267zM111 0v977h270v-977h-270zM299 1090v280h268v-280h-268z" />
<glyph unicode="&#xf0;" horiz-adv-x="1026" d="M68 492q0 127 14.5 217t39 143.5t65.5 83.5t83 39.5t103 9.5t145.5 -20t149.5 -50q-8 74 -25 162h-217v228h158q-18 53 -58 159l258 68q36 -90 74 -227h168v-228h-117q49 -245 49 -491q0 -124 -8 -211.5t-28.5 -158t-52.5 -113.5t-83.5 -72t-118 -40t-159.5 -11 q-79 0 -136 8t-109.5 28.5t-86.5 57t-59.5 93t-37 137t-11.5 188.5zM340 492q0 -102 7.5 -162t29 -94t52 -45t83.5 -11q39 0 66.5 6t47.5 23.5t31.5 41t19 65.5t9.5 90t2 122q0 81 -8 199q-91 43 -201 43q-55 0 -82.5 -18t-42 -78t-14.5 -182z" />
<glyph unicode="&#xf1;" horiz-adv-x="1024" d="M100 0v977h226l26 -88q69 42 172.5 74t180.5 32q115 0 169 -52.5t54 -160.5v-782h-271v682q0 44 -20 61t-76 17q-95 0 -190 -41v-719h-271zM135 1235l72 61q122 107 196 107q44 0 132 -43q81 -47 104 -47q25 0 80 45l59 51l127 -164l-65 -55q-133 -113 -205 -113 q-49 0 -137 49q-9 4 -23.5 11.5t-23 11.5t-19 9t-18.5 7t-15 2q-28 0 -80 -45l-59 -51z" />
<glyph unicode="&#xf2;" horiz-adv-x="1001" d="M59 492q0 153 23.5 251.5t79 156.5t136 81t204.5 23q125 0 204.5 -22t134.5 -80t78 -155.5t23 -250.5t-23.5 -251.5t-78.5 -157.5t-135.5 -82t-204.5 -23t-204 22.5t-135.5 80.5t-78.5 156t-23 251zM158 1466h360l148 -385h-203zM332 494q0 -129 16.5 -194.5t50.5 -89.5 t101 -24q68 0 102.5 23t51 88t16.5 195q0 129 -16.5 193.5t-51 87t-102.5 22.5t-101.5 -21.5t-50 -86t-16.5 -193.5z" />
<glyph unicode="&#xf3;" horiz-adv-x="1001" d="M59 492q0 153 23.5 251.5t79 156.5t136 81t204.5 23q125 0 204.5 -22t134.5 -80t78 -155.5t23 -250.5t-23.5 -251.5t-78.5 -157.5t-135.5 -82t-204.5 -23t-204 22.5t-135.5 80.5t-78.5 156t-23 251zM332 494q0 -129 16.5 -194.5t50.5 -89.5t101 -24q68 0 102.5 23t51 88 t16.5 195q0 129 -16.5 193.5t-51 87t-102.5 22.5t-101.5 -21.5t-50 -86t-16.5 -193.5zM334 1081l145 385h363l-305 -385h-203z" />
<glyph unicode="&#xf4;" horiz-adv-x="1001" d="M59 492q0 153 23.5 251.5t79 156.5t136 81t204.5 23q125 0 204.5 -22t134.5 -80t78 -155.5t23 -250.5t-23.5 -251.5t-78.5 -157.5t-135.5 -82t-204.5 -23t-204 22.5t-135.5 80.5t-78.5 156t-23 251zM139 1081l238 387h241l240 -387h-190l-172 170l-168 -170h-189z M332 494q0 -129 16.5 -194.5t50.5 -89.5t101 -24q68 0 102.5 23t51 88t16.5 195q0 129 -16.5 193.5t-51 87t-102.5 22.5t-101.5 -21.5t-50 -86t-16.5 -193.5z" />
<glyph unicode="&#xf5;" horiz-adv-x="1001" d="M59 492q0 153 23.5 251.5t79 156.5t136 81t204.5 23q125 0 204.5 -22t134.5 -80t78 -155.5t23 -250.5t-23.5 -251.5t-78.5 -157.5t-135.5 -82t-204.5 -23t-204 22.5t-135.5 80.5t-78.5 156t-23 251zM125 1235l72 61q122 107 196 107q43 0 131 -43q81 -47 105 -47 q25 0 80 45l59 51l127 -164l-66 -55q-133 -113 -204 -113q-50 0 -138 49q-9 5 -28.5 14.5t-28.5 14t-21 8.5t-20 4q-28 0 -80 -45l-59 -51zM332 494q0 -129 16.5 -194.5t50.5 -89.5t101 -24q68 0 102.5 23t51 88t16.5 195q0 129 -16.5 193.5t-51 87t-102.5 22.5 t-101.5 -21.5t-50 -86t-16.5 -193.5z" />
<glyph unicode="&#xf6;" horiz-adv-x="1001" d="M59 492q0 153 23.5 251.5t79 156.5t136 81t204.5 23q125 0 204.5 -22t134.5 -80t78 -155.5t23 -250.5t-23.5 -251.5t-78.5 -157.5t-135.5 -82t-204.5 -23t-204 22.5t-135.5 80.5t-78.5 156t-23 251zM180 1090v280h266v-280h-266zM332 494q0 -129 16.5 -194.5t50.5 -89.5 t101 -24q68 0 102.5 23t51 88t16.5 195q0 129 -16.5 193.5t-51 87t-102.5 22.5t-101.5 -21.5t-50 -86t-16.5 -193.5zM553 1090v280h268v-280h-268z" />
<glyph unicode="&#xf7;" horiz-adv-x="985" d="M78 580v217h829v-217h-829zM360 199v276h261v-276h-261zM360 903v275h261v-275h-261z" />
<glyph unicode="&#xf8;" horiz-adv-x="1001" d="M59 492q0 153 23.5 251.5t79 156.5t136 81t204.5 23q86 0 162 -13l73 146h187l-109 -211q66 -54 96.5 -157.5t30.5 -272.5q0 -153 -23.5 -251.5t-78.5 -157.5t-135.5 -82t-204.5 -23q-92 0 -162 12l-76 -146h-184l108 211q-66 55 -96.5 159.5t-30.5 273.5zM322 494 q0 -99 8 -154l237 465q-30 6 -67 6q-71 0 -106.5 -22t-53.5 -90t-18 -205zM430 176q27 -8 70 -8q53 0 85 12.5t54.5 48t31.5 98t9 165.5q0 98 -8 153z" />
<glyph unicode="&#xf9;" horiz-adv-x="1021" d="M94 197v780h271v-686q0 -43 21 -60.5t77 -17.5q79 0 188 39v725h271v-977h-224l-30 88q-65 -39 -166 -71.5t-183 -32.5q-115 0 -170 52t-55 161zM135 1466h361l147 -385h-203z" />
<glyph unicode="&#xfa;" horiz-adv-x="1021" d="M94 197v780h271v-686q0 -43 21 -60.5t77 -17.5q79 0 188 39v725h271v-977h-224l-30 88q-65 -39 -166 -71.5t-183 -32.5q-115 0 -170 52t-55 161zM381 1081l145 385h363l-305 -385h-203z" />
<glyph unicode="&#xfb;" horiz-adv-x="1021" d="M94 197v780h271v-686q0 -43 21 -60.5t77 -17.5q79 0 188 39v725h271v-977h-224l-30 88q-65 -39 -166 -71.5t-183 -32.5q-115 0 -170 52t-55 161zM150 1081l237 387h242l239 -387h-190l-172 170l-168 -170h-188z" />
<glyph unicode="&#xfc;" horiz-adv-x="1021" d="M94 197v780h271v-686q0 -43 21 -60.5t77 -17.5q79 0 188 39v725h271v-977h-224l-30 88q-65 -39 -166 -71.5t-183 -32.5q-115 0 -170 52t-55 161zM190 1090v280h267v-280h-267zM563 1090v280h268v-280h-268z" />
<glyph unicode="&#xfd;" horiz-adv-x="956" d="M20 977h275q192 -596 192 -598l193 598h254l-459 -1352h-262l137 406zM352 1081l146 385h362l-305 -385h-203z" />
<glyph unicode="&#xfe;" horiz-adv-x="1024" d="M100 -375v1907h271v-635q71 39 162.5 68.5t168.5 29.5q64 0 108 -20.5t78.5 -74t51 -154t16.5 -252.5q0 -153 -17.5 -255t-53 -156.5t-79.5 -75.5t-108 -21q-84 0 -175.5 21t-151.5 48v-430h-271zM371 236q110 -27 200 -27q43 0 65.5 18.5t35 80t12.5 181.5 q0 121 -12.5 179.5t-34.5 75t-68 16.5q-96 0 -198 -39v-485z" />
<glyph unicode="&#xff;" horiz-adv-x="956" d="M20 977h275q192 -596 192 -598l193 598h254l-459 -1352h-262l137 406zM160 1090v280h266v-280h-266zM532 1090v280h269v-280h-269z" />
<glyph unicode="&#x152;" horiz-adv-x="1763" d="M66 745q0 164 12.5 281.5t43.5 202.5t73 136.5t111 82t146.5 41t190.5 10.5h1053v-250h-578v-356h443v-246h-443v-401h578v-246h-1053q-114 0 -192 10t-147 40t-110.5 80.5t-72 134.5t-43 200.5t-12.5 279.5zM354 698q0 -190 27 -289t86.5 -137.5t173.5 -38.5h205v1027 h-205q-113 0 -173 -39t-87 -138.5t-27 -289.5v-95z" />
<glyph unicode="&#x153;" horiz-adv-x="1527" d="M59 492q0 154 23 251.5t78.5 156.5t136.5 81.5t209 22.5q117 0 190 -24t115 -79q82 103 270 103q111 0 181.5 -19.5t118.5 -71.5t67.5 -139t19.5 -225v-121h-524q1 -135 41.5 -181t151.5 -46q133 0 256 28l37 -206q-140 -37 -291 -37q-117 2 -197.5 25t-130.5 77 q-42 -56 -116 -81t-191 -25q-128 0 -209 22.5t-136 80.5t-77.5 155.5t-22.5 251.5zM332 494q0 -128 17 -194t52 -90t103 -24t103 23t52 88.5t17 194.5q0 128 -17 193t-52 87.5t-103 22.5q-52 0 -82.5 -10.5t-52 -43.5t-29.5 -91t-8 -156zM946 594h264q0 95 -12.5 140 t-38.5 60t-82 15q-48 0 -74 -15.5t-40.5 -62.5t-16.5 -137z" />
<glyph unicode="&#x178;" horiz-adv-x="1286" d="M27 1499h303l321 -668l322 668h287l-476 -983v-516h-282v514zM324 1591v281h266v-281h-266zM696 1591v281h269v-281h-269z" />
<glyph unicode="&#x2c6;" horiz-adv-x="929" d="M104 1081l238 387h242l239 -387h-190l-172 170l-168 -170h-189z" />
<glyph unicode="&#x2dc;" horiz-adv-x="952" d="M92 1235l72 61q122 107 196 107q44 0 132 -43q81 -47 104 -47q25 0 80 45l59 51l127 -164l-65 -55q-133 -113 -205 -113q-49 0 -137 49q-9 4 -23.5 11.5t-23 11.5t-19 9t-18.5 7t-15 2q-28 0 -80 -45l-59 -51z" />
<glyph unicode="&#x2000;" horiz-adv-x="985" />
<glyph unicode="&#x2001;" horiz-adv-x="1970" />
<glyph unicode="&#x2002;" horiz-adv-x="985" />
<glyph unicode="&#x2003;" horiz-adv-x="1970" />
<glyph unicode="&#x2004;" horiz-adv-x="656" />
<glyph unicode="&#x2005;" horiz-adv-x="492" />
<glyph unicode="&#x2006;" horiz-adv-x="328" />
<glyph unicode="&#x2007;" horiz-adv-x="328" />
<glyph unicode="&#x2008;" horiz-adv-x="246" />
<glyph unicode="&#x2009;" horiz-adv-x="394" />
<glyph unicode="&#x200a;" horiz-adv-x="109" />
<glyph unicode="&#x2010;" horiz-adv-x="706" d="M78 465v229h553v-229h-553z" />
<glyph unicode="&#x2011;" horiz-adv-x="706" d="M78 465v229h553v-229h-553z" />
<glyph unicode="&#x2012;" horiz-adv-x="706" d="M78 465v229h553v-229h-553z" />
<glyph unicode="&#x2013;" horiz-adv-x="1026" d="M78 465v229h870v-229h-870z" />
<glyph unicode="&#x2014;" horiz-adv-x="1589" d="M78 465v229h1433v-229h-1433z" />
<glyph unicode="&#x2018;" horiz-adv-x="589" d="M78 1006l284 553l123 -62l-88 -491h-319z" />
<glyph unicode="&#x2019;" horiz-adv-x="589" d="M104 1006l89 493h319l-285 -555z" />
<glyph unicode="&#x201a;" horiz-adv-x="589" d="M104 -195l89 494h319l-285 -555z" />
<glyph unicode="&#x201c;" horiz-adv-x="980" d="M84 1006l287 553l112 -62l-88 -491h-311zM483 1006l287 553l113 -62l-86 -491h-314z" />
<glyph unicode="&#x201d;" horiz-adv-x="980" d="M98 1006l88 493h312l-287 -555zM500 1006l86 493h311l-287 -555z" />
<glyph unicode="&#x201e;" horiz-adv-x="980" d="M98 -195l88 494h312l-287 -555zM500 -195l86 494h311l-287 -555z" />
<glyph unicode="&#x2022;" horiz-adv-x="948" d="M115 586q0 100 14 171t40 118t70.5 74t99.5 37.5t132 10.5q96 0 160.5 -18t112 -64t69 -127.5t21.5 -205.5t-21 -205t-68 -126.5t-110.5 -63t-159.5 -17.5q-97 0 -161 18t-110.5 64.5t-67.5 128t-21 205.5z" />
<glyph unicode="&#x2026;" horiz-adv-x="1767" d="M117 0v334h342v-334h-342zM713 0v334h344v-334h-344zM1309 0v334h344v-334h-344z" />
<glyph unicode="&#x202f;" horiz-adv-x="394" />
<glyph unicode="&#x2039;" horiz-adv-x="688" d="M98 479l224 434h243l-194 -434l194 -434h-243z" />
<glyph unicode="&#x203a;" horiz-adv-x="688" d="M123 45l194 436l-194 432h244l223 -432l-223 -436h-244z" />
<glyph unicode="&#x205f;" horiz-adv-x="492" />
<glyph unicode="&#x20ac;" horiz-adv-x="1165" d="M29 496v184h182v135h-182v184h1h1h1h1h1h1h1h1h1h1h1h1h1h1h1h1h1h1h1h1h1h1h1h1h1h1h1h1h1h1h1h1h1h1h1h1h1h2h1h1h1h1h1h1h2h1h1h1h1h2h1h1h1h2h1h1h1h2h1h1h2h1h1h2h1h1h2h1h2h1h1h2h1h2h1h2h1h2h1h1h2h1h2h2h1h2h1h2h1h2h1h2h2h1h2h1h2h2h1h2h2h1h2h2h1h2h2h1h2h2h1 h2h2h2h1h2h2h2h2h1h2h2h2h2h1h2h2h2h2h2h1h2h2h2h9q17 154 56 255.5t107.5 159.5t156.5 81t215 23q163 0 327 -31l-41 -244q-162 27 -290 27q-124 0 -177.5 -56.5t-70.5 -214.5h373v-184h-385v-135h385v-184h-371q17 -158 71 -215.5t177 -57.5q165 0 284 29l41 -236 q-153 -34 -325 -34q-129 0 -216.5 22.5t-155 80t-105.5 157.5t-54 254h-196z" />
<glyph unicode="&#x2122;" horiz-adv-x="1751" d="M57 1321v178h674v-178h-237v-743h-199v743h-238zM821 578v921h219l187 -614l180 614h223v-921h-184v600l-160 -578h-143l-156 578v-600h-166z" />
<glyph unicode="&#x25fc;" horiz-adv-x="972" d="M0 0v973h973v-973h-973z" />
<glyph unicode="&#xfb03;" horiz-adv-x="1660" d="M45 750v227h121v115q0 68 3.5 108.5t18 82.5t40 65.5t72.5 47.5t112.5 40t162.5 32l50 -245q-48 -10 -76.5 -17t-52 -17t-34 -18.5t-17.5 -26t-8 -33.5t-1 -46v-88h289v164q0 80 14 131t50.5 94.5t109 71.5t178.5 49.5t271 40.5l34 -240q-114 -16 -182.5 -29.5 t-112.5 -26t-62.5 -31t-24 -36t-5.5 -49.5v-139h559v-977h-270v752h-289v-752h-270v752h-289v-752h-270v750h-121z" />
<glyph unicode="&#xfb04;" horiz-adv-x="1658" d="M45 750v227h121v115q0 68 3.5 108.5t18 82.5t40 65.5t72.5 47.5t112.5 40t162.5 32l50 -245q-48 -10 -76.5 -17t-52 -17t-34 -18.5t-17.5 -26t-8 -33.5t-1 -46v-88h289v162q0 100 12 159t52 108t115 75.5t200 42.5l47 -248q-55 -10 -85 -20.5t-46.5 -30.5t-20.5 -42.5 t-4 -66.5v-139h152v-227h-152v-750h-270v750h-289v-750h-270v750h-121zM1284 0v1532h270v-1532h-270z" />
</font>
</defs>
</svg>
