<?xml version="1.0" standalone="no"?>
<!DOCTYPE svg PUBLIC "-//W3C//DTD SVG 1.1//EN" "http://www.w3.org/Graphics/SVG/1.1/DTD/svg11.dtd" >
<svg xmlns="http://www.w3.org/2000/svg">
<metadata></metadata>
<defs>
<font id="stainlesscondblack" horiz-adv-x="1370" >
<font-face units-per-em="2048" ascent="1628" descent="-420" />
<missing-glyph horiz-adv-x="372" />
<glyph unicode="&#xfb01;" horiz-adv-x="1179" d="M47 700v293h111v127q0 72 9 120.5t36 93t72 73.5t122 54.5t181 43t253 33.5l46 -307q-91 -15 -149 -25.5t-100.5 -23t-63.5 -21.5t-33.5 -24.5t-14.5 -28.5t-2 -37v-78h571v-993h-356v702h-215v-702h-356v700h-111z" />
<glyph unicode="&#xfb02;" horiz-adv-x="1179" d="M47 700v293h111v113q0 88 8 144.5t32 108.5t70 83.5t120 54.5t185 35l62 -326q-36 -7 -58 -15.5t-35 -17.5t-19 -26.5t-7.5 -33.5t-1.5 -48v-72h117v-293h-117v-700h-356v700h-111zM729 0v1540h356v-1540h-356z" />
<glyph horiz-adv-x="0" />
<glyph horiz-adv-x="682" />
<glyph unicode=" "  horiz-adv-x="372" />
<glyph unicode="&#x09;" horiz-adv-x="372" />
<glyph unicode="&#xa0;" horiz-adv-x="372" />
<glyph unicode="!" horiz-adv-x="706" d="M129 1507h449l-89 -1024h-274zM154 0v381h397v-381h-397z" />
<glyph unicode="&#x22;" horiz-adv-x="999" d="M63 1507h406l-66 -581h-274zM530 1507h406l-66 -581h-274z" />
<glyph unicode="#" horiz-adv-x="1230" d="M59 383v274h174l25 191h-199v274h234l51 406h285l-54 -406h170l54 406h286l-51 -406h137v-274h-172l-24 -191h196v-274h-231l-51 -403h-285l47 403h-168l-49 -403h-287l52 403h-140zM506 645h188l27 215h-189z" />
<glyph unicode="$" horiz-adv-x="1150" d="M61 1098q0 215 86.5 311t290.5 115v176h287v-178q227 -13 315 -41l-57 -312q-271 39 -414 39q-86 0 -114.5 -23t-28.5 -98q0 -55 13 -80.5t52.5 -44t133.5 -40.5q116 -27 182 -45.5t126.5 -47.5t87.5 -56.5t48 -78t26 -107.5t5 -149q0 -118 -15 -193.5t-56.5 -132.5 t-114.5 -86t-189 -40v-207h-287v203q-223 10 -370 41l51 313q79 -14 214 -29.5t222 -15.5q60 0 92 4.5t51.5 21t25 42t5.5 73.5q0 52 -12.5 76t-55.5 43t-147 43q-103 25 -168.5 45.5t-120.5 50.5t-83.5 61.5t-48.5 83.5t-26 112t-6 151z" />
<glyph unicode="%" horiz-adv-x="2252" d="M51 1016q0 127 17.5 217t50 148t87 91t119 45.5t156.5 12.5q93 0 157 -12t118 -44.5t85.5 -90t48.5 -147t17 -216.5q0 -126 -17.5 -216t-49.5 -147.5t-86.5 -90.5t-119.5 -45.5t-157 -12.5t-156 12t-118 44.5t-86 89.5t-49 146.5t-17 215.5zM360 983q0 -142 22.5 -186.5 t98.5 -44.5t97.5 42.5t21.5 184.5v76q0 97 -10 142t-35 62t-78 17q-41 0 -62 -6.5t-34.5 -32t-17 -64.5t-3.5 -114v-76zM743 0l455 1507h313l-456 -1507h-312zM1346 485q0 127 17.5 217t50 148t87 91t119 45.5t156.5 12.5t156 -12t118 -44.5t86 -90t49 -147t17 -216.5 t-17.5 -217t-49.5 -148t-86.5 -91t-119.5 -45.5t-157 -12.5t-156 12t-118 44.5t-86 90t-49 147t-17 216.5zM1653 453q0 -142 23.5 -187t99.5 -45t97 42.5t21 185.5v73q0 141 -22.5 182t-99.5 41t-98 -39t-21 -180v-73z" />
<glyph unicode="&#x26;" horiz-adv-x="1499" d="M70 481q0 168 63.5 248.5t222.5 120.5q-66 96 -87 156.5t-21 140.5q0 117 28.5 192t94 118t154 59t225.5 16q197 0 387 -35l-50 -315q-245 35 -352 35q-80 0 -107.5 -17.5t-27.5 -62.5q0 -10 1 -19t2.5 -17t6.5 -17.5t8.5 -17t12.5 -20.5t15.5 -21.5t21 -26.5t24.5 -30.5 t30.5 -37.5t35.5 -43l141 -180l88 221h320l-195 -494l346 -434h-430l-86 102q-54 -77 -118.5 -99.5t-194.5 -22.5q-112 0 -181 5t-140 22t-109.5 49.5t-71 88t-45 138t-12.5 198.5zM412 475q0 -49 4 -82.5t15 -57t24.5 -36.5t39.5 -20t52.5 -9t70.5 -2q51 0 78 15t52 63 l-209 268q-7 8 -15 18t-16.5 22t-13.5 18q-54 -26 -68 -67t-14 -130z" />
<glyph unicode="'" horiz-adv-x="534" d="M63 1507h406l-66 -581h-274z" />
<glyph unicode="(" horiz-adv-x="794" d="M55 594q0 120 2.5 209.5t10.5 176t20.5 148t33.5 119.5t48 96.5t66.5 72t87 53t110.5 34t136 20t165 5.5v-301q-68 0 -114.5 -3.5t-87 -18.5t-64.5 -31t-43.5 -56.5t-28.5 -78.5t-15.5 -113t-7.5 -144.5t-1 -187.5q0 -117 1 -186.5t7 -144t15.5 -113t29 -79t43.5 -56.5 t64.5 -31.5t87 -19t114.5 -3.5v-287q-116 0 -201.5 8t-157.5 30.5t-120 53.5t-85.5 86.5t-58.5 119t-34.5 162t-18 204.5t-4.5 256z" />
<glyph unicode=")" horiz-adv-x="794" d="M57 -39q68 0 115 3.5t87 19t64.5 31.5t43.5 57t28 78.5t15 113.5t7 143.5t1 186.5t-1 187.5t-7 144.5t-15 113.5t-28.5 78.5t-43 56.5t-64 30.5t-87 18.5t-115.5 3.5v301q92 0 165 -5.5t136 -20t110.5 -34t87 -53t66.5 -72t48 -96.5t33.5 -119.5t20.5 -148t10.5 -176 t2.5 -209.5q0 -150 -4.5 -256t-18 -204.5t-34.5 -162t-58.5 -119t-85.5 -86.5t-120 -53.5t-157.5 -30.5t-201.5 -8v287z" />
<glyph unicode="*" horiz-adv-x="1138" d="M59 809l299 162l-297 164l127 233l277 -205l-25 369h254l-20 -369l276 205l127 -233l-297 -164l299 -162l-127 -231l-276 202l18 -364h-254l25 366l-279 -204z" />
<glyph unicode="+" horiz-adv-x="1019" d="M68 555v274h303v322h278v-322h303v-274h-303v-319h-278v319h-303z" />
<glyph unicode="," horiz-adv-x="620" d="M86 -168l57 565h424l-321 -647z" />
<glyph unicode="-" horiz-adv-x="698" d="M68 455v288h565v-288h-565z" />
<glyph unicode="." horiz-adv-x="647" d="M119 0v397h407v-397h-407z" />
<glyph unicode="/" horiz-adv-x="817" d="M14 0l455 1507h334l-455 -1507h-334z" />
<glyph unicode="0" horiz-adv-x="1273" d="M61 754q0 160 12 276.5t40.5 204.5t71 144t109.5 91t149 48.5t196 13.5t195 -13.5t147.5 -48t108.5 -89.5t70.5 -143t40 -204t11.5 -276t-12 -276.5t-40.5 -205.5t-71 -145.5t-109.5 -92t-149 -49.5t-195 -14q-97 0 -170 10.5t-135 34t-105 64.5t-75.5 99t-51.5 141.5 t-28 188t-9 241.5zM438 659q0 -155 17.5 -232.5t59 -107.5t124.5 -30t123.5 29.5t57 105t16.5 231.5v195q0 155 -18 230.5t-58.5 102.5t-124.5 27q-64 0 -99 -12t-59 -52t-31.5 -107t-7.5 -185v-195z" />
<glyph unicode="1" horiz-adv-x="729" d="M33 1188v319h557v-1507h-379v1188h-178z" />
<glyph unicode="2" horiz-adv-x="1171" d="M59 0v293l447 438q76 71 110 105t58 74t28.5 71t4.5 90q0 75 -38.5 103t-148.5 28q-191 0 -385 -37l-51 320q74 17 200.5 32t235.5 15q112 0 191 -7.5t142 -27.5t102 -51t64.5 -81.5t35.5 -115t10 -155.5q0 -76 -6.5 -125.5t-22 -97.5t-53.5 -98t-88.5 -104t-138.5 -139 l-221 -219h561v-311h-1037z" />
<glyph unicode="3" horiz-adv-x="1165" d="M68 1178v329h956v-323l-283 -293q199 -35 277 -117q41 -42 58.5 -104.5t17.5 -161.5q0 -127 -13 -198.5t-51 -123.5q-71 -100 -274.5 -144t-659.5 -65l-22 314q306 14 443 32t179 54q43 36 43 131q0 77 -41 113q-32 27 -106.5 41t-210.5 26v238l248 252h-561z" />
<glyph unicode="4" horiz-adv-x="1259" d="M45 293v325l496 889h381l-504 -903h289v340h360v-340h133v-311h-133v-293h-360v293h-662z" />
<glyph unicode="5" horiz-adv-x="1198" d="M104 715l25 792h918v-329h-594l-9 -185q480 -35 603 -168q50 -56 65.5 -123.5t15.5 -197.5q0 -125 -13.5 -195.5t-51.5 -122.5q-69 -100 -273 -144t-659 -65l-22 314q306 14 442.5 32t179.5 54t43 127q0 81 -41 117q-39 33 -207 59t-422 35z" />
<glyph unicode="6" horiz-adv-x="1222" d="M61 748v14q0 249 28 373t114 202q141 127 817 195l41 -311q-291 -35 -427.5 -62t-174.5 -59q-27 -24 -34 -63t-7 -128q44 13 151 26t183 13q92 0 150.5 -6t109 -25t78 -50t47 -87t26 -129t6.5 -182q0 -137 -24 -225.5t-86.5 -151t-170 -89t-274.5 -26.5q-93 0 -163 7.5 t-128 27t-97.5 46.5t-69.5 74t-48 101t-29 135.5t-14.5 169t-3.5 210.5zM418 530q0 -114 17 -169.5t58 -77t125 -21.5q114 0 157.5 37.5t43.5 153.5q0 144 -25.5 183.5t-125.5 39.5q-129 0 -250 -23v-123z" />
<glyph unicode="7" horiz-adv-x="1153" d="M51 1178v329h1047v-327l-502 -1180h-399l518 1178h-664z" />
<glyph unicode="8" horiz-adv-x="1267" d="M55 416q0 162 42 233t184 144q-111 64 -146 134.5t-35 194.5q0 96 17.5 163.5t54.5 116.5t102 77t153.5 40.5t215.5 12.5q126 0 213.5 -12.5t151.5 -40.5t100.5 -77t53 -116t16.5 -164q0 -110 -36 -172t-153 -137q60 -30 99 -59t64 -59.5t37 -73.5t16.5 -88t4.5 -117 q0 -97 -16.5 -166.5t-55 -123.5t-106 -86t-166 -48.5t-237.5 -16.5q-171 0 -281.5 24t-176 80t-91 135.5t-25.5 201.5zM399 416q0 -84 51 -114t181 -30t174.5 29t44.5 115q0 42 -5.5 68.5t-19 47.5t-40.5 37t-65 32.5t-98 39.5q-27 10 -42 16l-64 23q-30 -23 -48.5 -40 t-32.5 -37t-20.5 -34t-10.5 -41t-4.5 -48t-0.5 -64zM453 1122q0 -23 3 -39.5t14.5 -31t22 -24t39 -23.5t51 -23t71.5 -28q12 -5 18 -7l84 -33q59 49 73.5 86t14.5 123q0 72 -47.5 92.5t-163.5 20.5q-106 0 -143 -19t-37 -94z" />
<glyph unicode="9" horiz-adv-x="1222" d="M53 1040q0 91 10 158t34.5 124t65.5 94.5t103 64t146.5 38t197.5 11.5q93 0 162.5 -7t127 -26.5t97 -46.5t70 -73.5t48 -100t28.5 -135t14.5 -169t3.5 -210.5v-17q0 -248 -27.5 -370.5t-113.5 -200.5q-150 -135 -815 -199l-41 304q517 52 598 127q29 26 36 64.5t7 129.5 q-46 -13 -152 -26t-180 -13q-93 0 -151.5 5.5t-109.5 24.5t-78.5 50t-47.5 87t-26.5 129t-6.5 183zM403 1053q0 -140 26 -179.5t126 -39.5q145 0 250 20v121q0 85 -8 134.5t-32 80t-60 40t-99 9.5q-60 0 -94.5 -6.5t-61 -26t-37 -56t-10.5 -97.5z" />
<glyph unicode=":" horiz-adv-x="641" d="M119 0v391h403v-391h-403zM119 602v391h403v-391h-403z" />
<glyph unicode=";" horiz-adv-x="641" d="M86 -168l57 565h418l-319 -647zM119 602v391h403v-391h-403z" />
<glyph unicode="&#x3c;" horiz-adv-x="849" d="M49 692l369 453h346l-367 -453l367 -446h-346z" />
<glyph unicode="=" horiz-adv-x="972" d="M92 369v252h789v-252h-789zM92 770v252h789v-252h-789z" />
<glyph unicode="&#x3e;" horiz-adv-x="849" d="M86 246l367 452l-367 447h346l369 -447l-369 -452h-346z" />
<glyph unicode="?" horiz-adv-x="1146" d="M53 1487q69 16 212.5 31.5t269.5 15.5q119 0 202.5 -7.5t147.5 -27.5t102.5 -49t62.5 -77.5t33 -107t9 -143.5q0 -73 -6.5 -125t-25.5 -99t-47 -80.5t-77.5 -69t-110 -65.5t-151.5 -69v-131h-342v269q104 47 159.5 73.5t106 56.5t70 47t34.5 46.5t17 52.5t2 68 q0 73 -39 95.5t-152 22.5q-99 0 -225.5 -14.5t-195.5 -30.5zM301 0v381h397v-381h-397z" />
<glyph unicode="@" horiz-adv-x="1951" d="M76 494q0 134 4.5 224.5t19.5 186.5t42 157.5t73 122.5t112 95.5t159 63t214 40t277 11.5q157 0 277.5 -10.5t213.5 -38t158.5 -61t111.5 -93t73 -119t41.5 -155t19 -185t4.5 -223.5q0 -83 -3 -135t-15.5 -111t-35 -93t-62.5 -70t-97.5 -55t-141 -35.5t-192 -22.5 t-250.5 -6l-37 116q-74 -50 -168 -82t-161 -32q-66 0 -112 14.5t-79 50t-47 95.5t-12.5 149.5t20.5 214.5q29 198 67.5 305.5t96.5 153t152 45.5q69 0 170.5 -29t177.5 -72l39 82h307l-119 -794q65 1 110.5 7t79 22t53 37.5t31 59.5t15.5 81t4 108q0 93 -2 157t-8.5 131 t-17.5 110.5t-31 88t-46 71t-66 52.5t-88 39.5t-114 24.5t-142.5 14.5t-174.5 3.5q-164 0 -274 -11.5t-190 -48.5t-123 -81.5t-67.5 -135t-31 -183.5t-6.5 -250q0 -93 2 -157.5t8.5 -133t17.5 -113t31 -91t46.5 -74.5t66 -55.5t88 -42t114.5 -26t143 -16t175 -4.5h330v-189 h-330q-156 0 -277 11.5t-214 40t-159 63t-112 95.5t-73 122t-42 157t-19.5 186.5t-4.5 224.5zM825.5 349.5q0.5 -49.5 16 -65.5t55.5 -16q38 0 78.5 14t64.5 29l50 383q-59 33 -148 33q-29 0 -44.5 -15.5t-28 -61t-27.5 -144.5q-17 -107 -16.5 -156.5z" />
<glyph unicode="A" horiz-adv-x="1345" d="M27 0l491 1513h340l463 -1513h-395l-52 188h-419l-56 -188h-372zM541 492h252l-123 460z" />
<glyph unicode="B" horiz-adv-x="1273" d="M102 0v1507h615q129 0 212.5 -16.5t141.5 -59t82.5 -114.5t24.5 -184q0 -166 -51.5 -245t-172.5 -104q66 -11 111.5 -31.5t81.5 -60.5t53 -106t17 -162q0 -115 -22.5 -192.5t-76.5 -131t-142.5 -77t-221.5 -23.5h-652zM473 295h256q57 0 87 36t30 128q0 94 -30 133 t-87 39h-256v-336zM473 903h225q58 0 86.5 32.5t28.5 121.5t-27.5 118t-87.5 29h-225v-301z" />
<glyph unicode="C" horiz-adv-x="1099" d="M55 754q0 161 14.5 280.5t48.5 205.5t81 141t119.5 87.5t156 45t199.5 12.5q59 0 107 -1.5t89.5 -5.5t62 -6.5t60 -8.5t49.5 -7l-53 -321q-164 24 -321 24q-73 0 -114.5 -14t-68 -58t-35 -114t-8.5 -193v-131q0 -98 6 -161t20 -111t41 -73t65.5 -36.5t97.5 -11.5 q168 0 311 31l51 -316q-163 -30 -364 -30q-117 0 -200.5 12.5t-156 45t-118.5 87.5t-79 141.5t-47 205t-14 280.5z" />
<glyph unicode="D" horiz-adv-x="1310" d="M102 -2v1507l539 2q94 0 161.5 -5t132 -19t107.5 -38t81.5 -64t61.5 -94.5t40 -132.5t23.5 -174.5t6.5 -223.5t-7 -224t-24 -175t-40 -133t-62 -95.5t-82 -65t-107.5 -39t-131.5 -19.5t-160 -5zM479 297h164q59 0 97.5 12.5t64.5 38.5t39.5 76.5t18.5 113.5t5 164v103 q0 83 -3 139t-12.5 103t-24.5 74t-41 46t-60 26t-84 7h-164v-903z" />
<glyph unicode="E" horiz-adv-x="1112" d="M102 0v1507h945v-329h-568v-260h436v-322h-436v-274h568v-322h-945z" />
<glyph unicode="F" horiz-adv-x="1081" d="M102 0v1505l945 2v-329h-568v-332h436v-320h-436v-526h-377z" />
<glyph unicode="G" horiz-adv-x="1224" d="M55 754q0 161 14.5 280.5t48.5 205.5t81 141t119.5 87.5t156 45t199.5 12.5q247 0 420 -33l-47 -324q-186 31 -379 31q-73 0 -114.5 -14t-68 -58t-35 -114t-8.5 -193v-137q0 -100 5.5 -161.5t19.5 -110.5t42 -73t69.5 -36t105.5 -12q90 0 131 8v475h330v-745 q-193 -47 -475 -47q-117 0 -200.5 12.5t-156 45t-118.5 87.5t-79 141.5t-47 205t-14 280.5z" />
<glyph unicode="H" horiz-adv-x="1380" d="M102 0v1507h377v-569h420v569h379v-1507h-379v596h-420v-596h-377z" />
<glyph unicode="I" horiz-adv-x="602" d="M113 0v1507h376v-1507h-376z" />
<glyph unicode="J" horiz-adv-x="1019" d="M29 18l49 324q7 -1 50.5 -8t81 -12t92 -10t97.5 -5q63 0 94.5 17.5t47.5 71t16 159.5v952h377v-962q0 -121 -10.5 -206.5t-36.5 -149.5t-63.5 -103t-100 -63t-136.5 -32.5t-181 -8.5q-97 0 -212 11t-165 25z" />
<glyph unicode="K" horiz-adv-x="1331" d="M102 0v1507h375v-485l383 485h391l-481 -604l506 -903h-414l-327 604q0 1 -14.5 -16.5t-28.5 -35.5l-15 -17v-535h-375z" />
<glyph unicode="L" horiz-adv-x="1077" d="M102 0v1507h377v-1185h568v-322h-945z" />
<glyph unicode="M" horiz-adv-x="1605" d="M102 0v1507h433l268 -886l268 886h432v-1507h-356v823l-217 -721h-281l-215 723v-825h-332z" />
<glyph unicode="N" d="M102 0v1507h353l458 -749v749h355v-1507h-310l-503 823v-823h-353z" />
<glyph unicode="O" d="M55 754q0 164 16 286.5t52.5 208.5t85.5 141t124 86.5t157.5 43.5t197.5 12q98 0 171.5 -8.5t141.5 -30t115.5 -59t87 -95t62 -139.5t35 -191.5t12.5 -250.5q0 -142 -12.5 -252t-36 -192.5t-63 -141.5t-87.5 -97.5t-116 -60.5t-142 -30.5t-172 -8.5t-171.5 8.5t-142 30 t-116 59.5t-87.5 96.5t-63.5 140.5t-36 192t-12.5 252zM442 684q0 -125 11 -200.5t41 -120t74.5 -59.5t119.5 -15q76 0 119.5 14t72.5 58.5t38.5 117.5t9.5 201v135q0 85 -4.5 144t-16 104.5t-28.5 73t-46 44.5t-63.5 23t-85.5 6q-100 0 -149 -29t-71 -111t-22 -249v-137z " />
<glyph unicode="P" horiz-adv-x="1243" d="M102 0v1507h617q106 0 180.5 -14t136 -50t97.5 -98.5t55.5 -158.5t19.5 -232q0 -169 -29 -279.5t-93 -172t-151 -85.5t-218 -24h-242v-393h-373zM475 698h217q33 0 57 10t44.5 36t31.5 77.5t11 128.5q0 76 -11.5 127t-33 76.5t-45.5 35t-56 9.5h-215v-500z" />
<glyph unicode="Q" d="M55 754q0 164 16 286.5t52.5 208.5t85.5 141t124 86.5t157.5 43.5t197.5 12q98 0 171.5 -8.5t141.5 -30t115.5 -59t87 -95t62 -139.5t35 -191.5t12.5 -250.5q0 -263 -44 -420t-136 -238q0 1 46.5 -91.5t92.5 -185.5l47 -93h-463l-117 258h-55q-86 0 -151.5 6t-128.5 21 t-109 41t-87 67t-68 98t-47 134t-29 176t-9 223zM442 680q0 -126 11 -203t41 -124t75 -64t119 -17q75 0 119.5 16t72.5 62.5t38 121.5t10 202v141q0 169 -21.5 254t-72 118.5t-150.5 33.5q-75 0 -118.5 -15.5t-73 -61t-40 -121t-10.5 -202.5v-141z" />
<glyph unicode="R" horiz-adv-x="1312" d="M102 0v1507h605q131 0 218 -23.5t150 -83t91 -162t28 -259.5q0 -199 -52 -304.5t-171 -146.5l311 -528h-412l-252 434h-145v-434h-371zM473 739h207q77 0 110 51.5t33 184.5q0 90 -17.5 140t-47 66.5t-80.5 16.5h-205v-459z" />
<glyph unicode="S" horiz-adv-x="1177" d="M70 1092q0 126 30.5 210t97.5 134t161.5 71t234.5 21q129 0 267.5 -13.5t201.5 -31.5l-57 -320q-256 41 -414 41q-87 0 -117.5 -24t-30.5 -95q0 -28 1.5 -45.5t12 -33t20.5 -23.5t38.5 -18.5t54.5 -17t80 -19.5q102 -24 167 -43.5t123 -48t89.5 -60.5t55.5 -81.5t32 -111 t8 -149.5q0 -132 -28 -217t-97.5 -139t-177 -76t-274.5 -22q-250 0 -477 40l51 318q42 -9 191 -26t239 -17q125 0 160 23.5t35 113.5q0 29 -2 46t-10.5 34t-20.5 26t-39 20t-58.5 19.5t-85.5 20.5q-100 22 -164.5 42t-120.5 48t-86.5 60.5t-53 83t-30 111.5t-7.5 149z" />
<glyph unicode="T" horiz-adv-x="1243" d="M35 1178v329h1173v-331h-399v-1176h-375v1178h-399z" />
<glyph unicode="U" horiz-adv-x="1335" d="M84 528v979h379v-966q0 -73 11.5 -117.5t40.5 -68t65.5 -31t97.5 -7.5q63 0 98.5 6.5t64 29t39.5 66.5t11 118v970h358v-975q0 -113 -11.5 -195t-40 -144.5t-70.5 -102.5t-108 -65t-148 -35t-195 -10q-173 0 -279.5 22t-180 83.5t-103 167t-29.5 275.5z" />
<glyph unicode="V" horiz-adv-x="1345" d="M27 1507h393l256 -891l270 891h375l-494 -1513h-340z" />
<glyph unicode="W" horiz-adv-x="1773" d="M27 1507h387l178 -825l180 713h256l184 -721l181 833h354l-361 -1513h-299l-198 776l-199 -776h-303z" />
<glyph unicode="X" horiz-adv-x="1400" d="M45 0l430 821l-387 686h424l223 -399l205 399h371l-385 -743l428 -764h-424l-266 477l-246 -477h-373z" />
<glyph unicode="Y" horiz-adv-x="1368" d="M20 1507h400l274 -608l275 608h379l-476 -1030v-477h-376v473z" />
<glyph unicode="Z" horiz-adv-x="1181" d="M57 0v307l621 871h-598v329h1040v-311l-616 -874h626v-322h-1073z" />
<glyph unicode="[" horiz-adv-x="745" d="M131 -326v1854h557v-301h-227v-1266h227v-287h-557z" />
<glyph unicode="\" horiz-adv-x="817" d="M14 1507h334l455 -1507h-334z" />
<glyph unicode="]" horiz-adv-x="745" d="M57 -39h248v1266h-248v301h557v-1854h-557v287z" />
<glyph unicode="^" horiz-adv-x="698" d="M68 557v289h565v-289h-565z" />
<glyph unicode="_" horiz-adv-x="1024" d="M-78 -100h1180v-289h-1180v289z" />
<glyph unicode="`" horiz-adv-x="933" d="M43 1503h446l156 -422h-268z" />
<glyph unicode="a" horiz-adv-x="1015" d="M41 336q0 93 15 141t57 78q46 38 156 55t315 17v53q0 32 -20.5 45.5t-67.5 13.5q-162 0 -334 -28l-33 274q170 31 373 31q131 0 215.5 -17t133 -55.5t67 -91t18.5 -133.5v-719h-305q-29 90 -31 90q-172 -104 -334 -104q-106 0 -165.5 88.5t-59.5 261.5zM397 348 q0 -58 17.5 -84t58.5 -26q49 0 111 16v203q-130 -3 -162 -25q-16 -10 -20.5 -28t-4.5 -56z" />
<glyph unicode="b" horiz-adv-x="1099" d="M88 0v1540h356v-627q69 40 167.5 69.5t172.5 29.5q94 0 149.5 -47t83 -158.5t27.5 -304.5t-29 -307t-85.5 -161.5t-151.5 -47.5q-86 0 -185 22t-165 55l-39 -63h-301zM444 279q83 -9 152 -9q50 0 70 46t20 182q0 95 -9 140t-26.5 58t-54.5 13q-82 0 -152 -17v-413z" />
<glyph unicode="c" horiz-adv-x="849" d="M53 502q0 112 11.5 194t39 139t64 92.5t95.5 55t123 26.5t157 7q134 0 260 -29l-49 -276q-113 20 -215 20q-82 0 -105.5 -43.5t-23.5 -183.5q0 -142 25 -190t106 -48q95 0 213 23l49 -269q-131 -30 -268 -30q-79 0 -135 5t-109.5 18t-89 37t-66 62t-47.5 92.5t-26 128 t-9 169.5z" />
<glyph unicode="d" horiz-adv-x="1099" d="M55 494q0 193 29 307.5t86 162.5t152 48q81 0 172.5 -20.5t160.5 -49.5v598h357v-1540h-310l-28 90q-75 -44 -176.5 -76t-180.5 -32q-95 0 -151 47.5t-83.5 159t-27.5 305.5zM414 489q0 -95 9 -139.5t27 -57.5t56 -13q67 0 149 16v414q-62 10 -151 10q-33 0 -51.5 -18 t-28.5 -68.5t-10 -143.5z" />
<glyph unicode="e" horiz-adv-x="978" d="M53 502q0 108 12.5 189.5t39 138t61.5 93t88 57t110.5 28.5t135.5 8q82 0 140 -7.5t108 -27t82 -52.5t54.5 -84.5t32 -122t9.5 -167.5v-143h-518q2 -85 34.5 -115.5t135.5 -30.5q123 0 262 25l45 -264q-156 -37 -303 -37q-103 0 -173.5 7t-134 27t-102 55t-67.5 92.5 t-40.5 138t-11.5 192.5zM408 608h186q0 78 -8 112t-26.5 45t-61.5 11q-39 0 -57 -12.5t-25.5 -47t-7.5 -108.5z" />
<glyph unicode="f" horiz-adv-x="712" d="M47 700v293h111v123q0 75 4 118t20.5 89t45.5 72t83.5 52.5t131 45t190.5 37.5l72 -322q-93 -20 -131 -36.5t-49 -38.5t-11 -72v-68h162v-293h-162v-700h-356v700h-111z" />
<glyph unicode="g" horiz-adv-x="1099" d="M55 510q0 187 29 298t86 157.5t152 46.5q86 0 187.5 -24t168.5 -58l27 63h307v-936q0 -77 -6 -131.5t-23 -105.5t-46.5 -83.5t-76 -57t-113.5 -35.5t-157 -11q-262 0 -463 23l29 272q168 -20 407 -20q55 0 73.5 32.5t18.5 120.5v50q-75 -41 -168.5 -70t-169.5 -29 q-142 0 -202 110.5t-60 387.5zM414 514q0 -134 19 -177.5t73 -43.5q83 0 149 16v400q-62 10 -151 10q-34 0 -52 -13.5t-28 -58.5t-10 -133z" />
<glyph unicode="h" horiz-adv-x="1097" d="M88 0v1540h356v-625q68 39 162.5 68t175.5 29q234 0 234 -213v-799h-357v653q0 30 -19 42t-65 12q-37 0 -131 -17v-690h-356z" />
<glyph unicode="i" horiz-adv-x="555" d="M98 0v993h357v-993h-357zM98 1081v349h357v-349h-357z" />
<glyph unicode="j" horiz-adv-x="555" d="M-88 -63q84 17 123 35.5t51 43.5t12 76v901h357v-975q0 -63 -6.5 -106.5t-24.5 -86t-51 -71t-86.5 -53.5t-130.5 -42t-183 -30zM98 1081v349h357v-349h-357z" />
<glyph unicode="k" horiz-adv-x="1050" d="M88 0v1540h356v-825l234 278h340q-287 -329 -287 -331l299 -662h-381l-157 389q-21 -24 -48 -55v-334h-356z" />
<glyph unicode="l" horiz-adv-x="555" d="M98 0v1540h357v-1540h-357z" />
<glyph unicode="m" horiz-adv-x="1634" d="M88 0v993h305l29 -90q190 109 358 109q156 0 197 -107q192 107 354 107q116 0 167.5 -53t51.5 -171v-788h-350v657q0 32 -16 43t-62 11q-50 0 -127 -17v-694h-350v657q0 32 -16 43t-62 11q-51 0 -127 -17v-694h-352z" />
<glyph unicode="n" horiz-adv-x="1097" d="M88 0v993h309l29 -90q71 45 175.5 77t180.5 32q119 0 176.5 -52t57.5 -161v-799h-357v653q0 31 -17.5 42.5t-63.5 11.5q-67 0 -132 -17v-690h-358z" />
<glyph unicode="o" horiz-adv-x="1071" d="M53 500q0 110 11.5 191t38 138.5t63 93.5t94.5 57t122.5 28.5t156.5 7.5q78 0 135 -5.5t110 -19t88.5 -38.5t65 -62.5t46 -92.5t25.5 -127t9 -167q0 -110 -11.5 -191t-38 -139t-62.5 -94t-93.5 -57t-122 -29t-155.5 -8q-92 0 -156.5 7.5t-122 28t-93 56.5t-62 93.5 t-37.5 137.5t-11 191zM410 502q0 -164 22.5 -212t104.5 -48t103.5 47t21.5 211q0 113 -9 163t-34.5 69.5t-83.5 19.5q-44 0 -67 -8t-37 -37.5t-17.5 -73.5t-3.5 -131z" />
<glyph unicode="p" horiz-adv-x="1099" d="M88 -367v1360h307l29 -90q75 44 177 76.5t181 32.5q95 0 151 -47t83.5 -158t27.5 -305q0 -193 -29 -307t-85.5 -161.5t-151.5 -47.5q-84 0 -176.5 20t-157.5 49v-422h-356zM444 279q83 -9 152 -9q33 0 51 17.5t27.5 67.5t9.5 143q0 95 -8.5 139.5t-26 58t-55.5 13.5 q-84 0 -150 -17v-413z" />
<glyph unicode="q" horiz-adv-x="1099" d="M55 494q0 193 29 307.5t86 162.5t152 48q86 0 187.5 -24t168.5 -58l27 63h307v-1360h-357v447q-74 -40 -167.5 -69t-170.5 -29q-95 0 -151 47.5t-83.5 159t-27.5 305.5zM414 498q0 -95 9 -142t27.5 -62t55.5 -15q67 0 149 16v414q-62 10 -151 10q-34 0 -52 -15.5t-28 -64 t-10 -141.5z" />
<glyph unicode="r" horiz-adv-x="813" d="M88 0v993h309q2 -7 5.5 -18.5t10.5 -35.5t11.5 -40t3.5 -16q168 100 313 133l39 -334q-61 0 -176 -6.5t-158 -13.5v-662h-358z" />
<glyph unicode="s" horiz-adv-x="923" d="M49 698q0 180 93.5 250t301.5 70q244 0 400 -37l-43 -238q-178 29 -340 29q-50 0 -68 -10t-18 -45q0 -37 24.5 -48t130.5 -26q18 -3 27 -4q104 -14 165.5 -34.5t98.5 -58.5t49.5 -90t12.5 -137q0 -186 -96 -256.5t-341 -70.5q-122 0 -231.5 10.5t-157.5 20.5l33 237 q177 -33 350 -33q68 0 90.5 10.5t22.5 43.5q0 40 -23 51t-155 33q-7 1 -10 2q-102 17 -161 38t-95.5 60t-48 91.5t-11.5 141.5z" />
<glyph unicode="t" horiz-adv-x="741" d="M29 700v293h86v254l356 41v-295h203v-293h-203v-333q0 -60 17 -79.5t67 -19.5q47 0 129 10l16 -268q-39 -7 -130 -13.5t-162 -6.5q-167 0 -230 61.5t-63 231.5v417h-86z" />
<glyph unicode="u" horiz-adv-x="1097" d="M82 195v798h356v-661q0 -30 18.5 -41.5t65.5 -11.5q59 0 131 16v698h357v-993h-308l-30 90q-68 -42 -170 -75t-187 -33q-117 0 -175 52.5t-58 160.5z" />
<glyph unicode="v" horiz-adv-x="1062" d="M10 993h363l172 -516l172 516h332l-363 -997h-315z" />
<glyph unicode="w" horiz-adv-x="1466" d="M12 993h342l135 -461l136 461h256l135 -458l131 458h307l-297 -997h-262l-160 532l-160 -532h-266z" />
<glyph unicode="x" horiz-adv-x="1062" d="M14 0l314 528l-283 465h397l123 -198l117 198h336l-285 -475l316 -518h-398l-155 250l-146 -250h-336z" />
<glyph unicode="y" horiz-adv-x="1067" d="M10 993h363l174 -518l174 518h332l-494 -1360h-346l149 406z" />
<glyph unicode="z" horiz-adv-x="950" d="M57 0v252l398 465h-383v276h813v-256l-393 -467h413v-270h-848z" />
<glyph unicode="{" horiz-adv-x="944" d="M35 455v299h172q4 163 16.5 274t43 202t76.5 144.5t123 90t176.5 50t242.5 13.5v-301q-68 0 -114.5 -3.5t-87 -18.5t-64.5 -31t-43.5 -56.5t-28.5 -78.5t-15 -113t-7 -144.5t-1 -187.5q0 -93 0.5 -152t4 -125t8.5 -103.5t15.5 -80t23 -63.5t34 -44.5t46 -32.5t60 -18.5 t75.5 -11.5t94 -2v-287q-108 0 -189.5 7t-151 26t-117.5 46.5t-86.5 73.5t-62 101.5t-39.5 137t-23 173t-9 216.5h-172z" />
<glyph unicode="|" horiz-adv-x="831" d="M260 -252v1839h311v-1839h-311z" />
<glyph unicode="}" horiz-adv-x="944" d="M57 -39q68 0 115 3.5t87 19t64.5 31.5t43.5 57t28 78.5t15 113.5t7 143.5t1 186.5t-1 187.5t-7 144.5t-15 113.5t-28.5 78.5t-43 56.5t-64 30.5t-87 18.5t-115.5 3.5v301q107 0 188 -7.5t149.5 -26.5t117 -46.5t87 -73t62.5 -100.5t40.5 -134.5t24 -169.5t9.5 -210h174 v-297h-174q-2 -126 -8.5 -218.5t-22.5 -175t-39 -138.5t-61.5 -102.5t-87 -74t-118 -47t-151 -26.5t-190.5 -7v287z" />
<glyph unicode="~" horiz-adv-x="972" d="M49 1270l76 67q150 131 231 131q56 0 148 -47q9 -5 27.5 -14.5t28.5 -14.5t23 -11t22.5 -8.5t17.5 -2.5q28 0 84 49l57 51l160 -206l-66 -58q-157 -141 -242 -141q-53 0 -157 55q-88 43 -109 43q-31 0 -84 -49l-57 -51z" />
<glyph unicode="&#xa1;" horiz-adv-x="706" d="M129 0l88 1026h275l86 -1026h-449zM156 1126v381h397v-381h-397z" />
<glyph unicode="&#xa2;" horiz-adv-x="870" d="M53 772q0 168 29.5 271t87 155t154.5 72v248h282v-234q110 -6 197 -27l-49 -270q-129 19 -215 19q-81 0 -105 -45t-24 -185q0 -144 25 -195t106 -51q84 0 213 25l49 -262q-76 -21 -197 -31v-262h-282v274q-98 20 -155.5 71t-86.5 154t-29 273z" />
<glyph unicode="&#xa3;" horiz-adv-x="1146" d="M57 0v322h205q-3 12 -61 288h-144v285h90q-22 154 -22 211q0 123 23.5 201.5t83.5 131t158.5 74t254.5 21.5q249 0 432 -39l-57 -324q-210 33 -361 33q-95 0 -127 -24.5t-32 -106.5q0 -52 16 -178h365v-285h-314q26 -139 62 -288h448v-322h-1020z" />
<glyph unicode="&#xa4;" horiz-adv-x="1224" d="M35 483v222h176v96h-176v221h1h1h1h1h1h1h1h1h1h1h1h1h1h1h1h1h1h1h1h1h1h1h1h1h1h1h1h1h1h1h1h1h1h1h1h1h1h1h1h1h1h2h1h1h1h1h1h2h1h1h1h2h1h1h1h2h1h1h2h1h1h2h1h1h2h1h1h2h1h2h1h1h2h1h2h1h2h1h2h1h2h1h2h1h2h1h2h2h1h2h1h2h1h2h2h1h2h2h1h2h2h1h2h2h1h2h2h1h2h2h2h1 h2h2h2h1h2h2h2h2h1h2h2h2h2h2h1h2h2h2h2h2h8q19 153 62.5 252.5t119 154.5t169.5 76t233 21q68 0 126.5 -3.5t82 -6t75.5 -10.5t58 -9l-53 -321q-172 24 -295 24q-50 0 -81 -6t-57.5 -24.5t-41 -54t-23.5 -93.5h350v-221h-368v-96h368v-222h-350q18 -113 63.5 -149.5 t143.5 -36.5q160 0 285 27l51 -312q-159 -30 -338 -30q-141 0 -234.5 20.5t-167.5 75.5t-116 153.5t-60 251.5h-192z" />
<glyph unicode="&#xa5;" horiz-adv-x="1337" d="M20 1507h410l254 -604l256 604h377q-162 -353 -287 -622h258v-221h-360l-39 -86h399v-222h-436v-356h-377v356h-436v222h395l-39 86h-1h-1h-1h-1h-1h-1h-1h-1h-1h-1h-1h-1h-1h-1h-1h-1h-1h-1h-1h-1h-1h-1h-1h-1h-1h-1h-1h-1h-1h-1h-1h-1h-1h-1h-1h-1h-1h-1h-1h-1h-1h-1 h-1h-1h-1h-1h-1h-1h-1h-1h-1h-1h-1h-1h-1h-1h-1h-1h-1h-1h-1h-1h-1h-2h-1h-1h-1h-1h-1h-1h-1h-1h-1h-1h-1h-2h-1h-1h-1h-1h-1h-1h-2h-1h-1h-1h-1h-2h-1h-1h-1h-1h-2h-1h-1h-1h-2h-1h-1h-1h-2h-1h-1h-1h-2h-1h-1h-2h-1h-1h-1h-2h-1h-1h-2h-1h-1h-2h-1h-2h-1h-1h-2h-1h-1h-2 h-1h-2h-1h-1h-2h-1h-2h-1h-1h-2h-1h-2h-1h-2h-1h-1h-2h-1h-2h-1h-2h-1h-2h-1h-2h-1h-2h-1h-2h-1h-2h-1h-2h-1h-2h-1h-2h-2h-1h-2h-1h-2h-1h-2h-1h-2h-2h-1h-2h-1h-2h-2h-1h-2h-1h-2h-2h-1h-2h-2h-1h-2h-1h-2h-2h-1h-2h-2h-1h-2h-2h-1h-2h-2h-1h-2h-2h-2h-1h-2h-2h-1h-2h-2 h-2h-1h-2h-2h-2h-1h-2h-2h-2h-1h-2h-2h-2h-1h-2h-2h-2h-2h-1h-2h-2h-2h-2h-1h-2h-2h-2h-2h-1h-2h-2h-2h-2h-2h-2h-1h-2h-2h-2h-2h-2h-2h-8v221h258z" />
<glyph unicode="&#xa6;" horiz-adv-x="831" d="M260 -250v797h311v-797h-311zM260 791v796h311v-796h-311z" />
<glyph unicode="&#xa7;" horiz-adv-x="1095" d="M94 676q0 89 27 149.5t86 116.5q-53 37 -74.5 101t-21.5 169q0 170 95.5 244t323.5 74q244 0 424 -45l-43 -225q-198 36 -354 36q-69 0 -93 -12t-24 -51q0 -44 34.5 -56t162.5 -20q118 -9 187 -26.5t110 -55t54 -90t13 -141.5q0 -169 -114 -277q94 -78 94 -260 q0 -170 -95 -243.5t-323 -73.5q-252 0 -416 45l39 223q200 -39 351 -39q72 0 93 12.5t21 53.5q0 45 -28.5 56.5t-153.5 20.5q-116 8 -186 25t-114 54t-59.5 91.5t-15.5 143.5zM412 737q0 -30 12.5 -44t51.5 -24t124 -18q5 0 15 -1t14 -1q32 31 43.5 60t11.5 73 q0 30 -10.5 44t-49.5 24t-128 18q-5 0 -15.5 1t-15.5 1q-53 -53 -53 -133z" />
<glyph unicode="&#xa8;" horiz-adv-x="911" d="M92 1083v318h320v-318h-320zM498 1083v318h321v-318h-321z" />
<glyph unicode="&#xa9;" horiz-adv-x="1579" d="M76 752q0 160 12 271.5t43.5 203t81 146.5t131.5 92.5t188 52t256 14.5q112 0 199 -8t160 -28t125 -49t93 -75t66.5 -103t42 -136.5t23 -170.5t6.5 -210q0 -160 -12 -271.5t-43.5 -202t-81.5 -145.5t-132.5 -92t-189 -51.5t-256.5 -14.5t-256 14.5t-188 51.5t-131.5 92 t-81 145.5t-43.5 202t-12 271.5zM274 754q0 -144 8 -239.5t34.5 -165.5t58.5 -107.5t97 -59t133 -27t183 -5.5q68 0 115.5 1.5t97 7.5t82 15.5t66 27t53.5 40.5t40 58t30 77t18.5 99.5t11.5 124.5t3 153t-3 153t-11.5 124.5t-18.5 99.5t-30 77t-40 58t-53.5 40.5t-66 27 t-82 15.5t-97 7.5t-115.5 1.5q-115 0 -183 -5.5t-133 -27t-97 -59t-58.5 -107.5t-34.5 -165.5t-8 -239.5zM428 754q0 101 9.5 175.5t30.5 128t50.5 88t75.5 54.5t98 27.5t125 7.5q114 0 244 -18l-43 -230q-129 14 -205 14q-74 0 -94.5 -40.5t-20.5 -172.5v-69 q0 -133 21.5 -178t95.5 -45q104 0 203 22l37 -225q-121 -23 -242 -23q-73 0 -125.5 8t-98 28t-74 54.5t-49 89t-29.5 129t-9 175.5z" />
<glyph unicode="&#xaa;" horiz-adv-x="870" d="M59 991q0 74 15.5 119.5t54.5 69.5q41 25 119.5 34t245.5 11v59q0 24 -13 32.5t-51 8.5q-192 0 -270 -16l-31 209q154 22 301 22q138 0 215.5 -27.5t106 -78.5t28.5 -138v-577h-248l-24 74q-144 -86 -266 -86q-85 0 -134 73t-49 211zM109 406v215h671v-215h-671zM350 995 q0 -47 13 -67.5t45 -20.5t86 13v161q-80 0 -117 -12q-18 -5 -22.5 -21t-4.5 -53z" />
<glyph unicode="&#xab;" horiz-adv-x="1212" d="M96 483l217 439h289l-178 -439l180 -438h-291zM580 483l217 439h288l-178 -439l180 -438h-290z" />
<glyph unicode="&#xac;" horiz-adv-x="1224" d="M55 754q0 161 14.5 280.5t48.5 205.5t81 141t119.5 87.5t156 45t199.5 12.5q247 0 420 -33l-47 -324q-186 31 -379 31q-73 0 -114.5 -14t-68 -58t-35 -114t-8.5 -193v-137q0 -100 5.5 -161.5t19.5 -110.5t42 -73t69.5 -36t105.5 -12q86 0 141 8v215h-198v299h518v-784 q-193 -47 -475 -47q-117 0 -200.5 12.5t-156 45t-118.5 87.5t-79 141.5t-47 205t-14 280.5z" />
<glyph unicode="&#xad;" horiz-adv-x="698" d="M68 455v288h565v-288h-565z" />
<glyph unicode="&#xae;" horiz-adv-x="1579" d="M76 752q0 160 12 271.5t43.5 203t81 146.5t131.5 92.5t188 52t256 14.5q112 0 199 -8t160 -28t125 -49t93 -75t66.5 -103t42 -136.5t23 -170.5t6.5 -210q0 -160 -12 -271.5t-43.5 -202t-81.5 -145.5t-132.5 -92t-189 -51.5t-256.5 -14.5t-256 14.5t-188 51.5t-131.5 92 t-81 145.5t-43.5 202t-12 271.5zM274 754q0 -144 8 -239.5t34.5 -165.5t58.5 -107.5t97 -59t133 -27t183 -5.5q68 0 115.5 1.5t97 7.5t82 15.5t66 27t53.5 40.5t40 58t30 77t18.5 99.5t11.5 124.5t3 153t-3 153t-11.5 124.5t-18.5 99.5t-30 77t-40 58t-53.5 40.5t-66 27 t-82 15.5t-97 7.5t-115.5 1.5q-115 0 -183 -5.5t-133 -27t-97 -59t-58.5 -107.5t-34.5 -165.5t-8 -239.5zM438 303v909h387q74 0 125.5 -15t90 -51t57 -99t18.5 -156q0 -100 -24.5 -169t-94.5 -101l185 -318h-285l-149 260h-56v-260h-254zM692 754h109q34 0 48.5 31.5 t14.5 99.5q0 63 -15 89.5t-50 26.5h-107v-247z" />
<glyph unicode="&#xaf;" horiz-adv-x="931" d="M123 1092v325h686v-325h-686z" />
<glyph unicode="&#xb0;" horiz-adv-x="915" d="M55 1110q0 124 23 205.5t74.5 129.5t125 67.5t183.5 19.5t182.5 -19t123.5 -66.5t73 -128t22 -204.5t-23 -205.5t-74 -129.5t-124.5 -67.5t-183.5 -19.5q-88 0 -151 12t-112.5 40t-79 76.5t-44.5 119.5t-15 170zM340 1114q0 -100 11 -146t34.5 -60.5t75.5 -14.5 q51 0 73.5 14t33 59.5t10.5 145.5q0 98 -11 143t-34 58.5t-74 13.5q-40 0 -60 -5.5t-35 -28t-19.5 -63.5t-4.5 -116z" />
<glyph unicode="&#xb1;" horiz-adv-x="1748" d="M47 700v293h111v82q0 56 1.5 91t8.5 74t19.5 62t35.5 49t54.5 42t79 33.5t107 30.5t140.5 26l68 -318q-62 -15 -90 -24t-45.5 -25.5t-20 -33.5t-2.5 -56v-33h215v113q0 62 3.5 106t14 88t29.5 73.5t49.5 57.5t75 46t104.5 32t140 23l61 -326q-36 -7 -58 -15.5t-35 -17.5 t-19 -26.5t-7.5 -33.5t-1.5 -48v-72h117v-293h-117v-700h-356v700h-215v-700h-356v700h-111zM1300 0v1540h357v-1540h-357z" />
<glyph unicode="&#xb2;" horiz-adv-x="864" d="M74 504v225l286 285q80 74 97.5 101.5t17.5 84.5q0 34 -18.5 45.5t-69.5 11.5q-118 0 -262 -24l-41 250q152 37 305 37q114 0 182.5 -13t112 -48t59 -91t15.5 -149q0 -115 -35 -177t-174 -196l-80 -90h305v-252h-700z" />
<glyph unicode="&#xb3;" horiz-adv-x="868" d="M78 1249v256h653v-241l-168 -156q115 -22 156 -70q55 -58 55 -188q0 -84 -9.5 -133t-35.5 -84q-48 -66 -186.5 -97.5t-442.5 -43.5l-18 253q212 8 295 16.5t108 29.5q17 15 17 65q0 40 -17 55q-18 14 -63 21t-141 16v176l149 125h-352z" />
<glyph unicode="&#xb4;" horiz-adv-x="933" d="M289 1081l155 422h447l-334 -422h-268z" />
<glyph unicode="&#xb6;" horiz-adv-x="1196" d="M37 1001q0 125 20 214t55.5 145.5t95 89t128 45t164.5 12.5l600 -2v-1505h-357v510h-106v-510h-340v535q-56 14 -99 40.5t-81.5 77.5t-59 139t-20.5 209zM395 987q0 -121 29 -167t92 -46h227v426h-223q-63 0 -94 -47.5t-31 -165.5z" />
<glyph unicode="&#xb7;" horiz-adv-x="665" d="M119 526v385h428v-385h-428z" />
<glyph unicode="&#xb8;" horiz-adv-x="942" d="M236 -190q54 7 109.5 22t78.5 27l-21 174l222 35l45 -369q-43 -38 -148.5 -76.5t-247.5 -54.5z" />
<glyph unicode="&#xb9;" horiz-adv-x="667" d="M96 1251v256h404v-999h-293v743h-111z" />
<glyph unicode="&#xba;" horiz-adv-x="905" d="M59 1110q0 132 20.5 214t71 128t120.5 62t184 16q75 0 127.5 -6.5t99 -23.5t75.5 -46t50 -75.5t30 -111t9 -153.5q0 -132 -20.5 -214.5t-71 -128.5t-120.5 -62.5t-183 -16.5q-114 0 -183 15.5t-119 61.5t-70 127.5t-20 213.5zM104 406v215h695v-215h-695zM352 1114 q0 -143 17.5 -185t83.5 -42q67 0 83.5 40.5t16.5 184.5q0 141 -17 180t-85 39q-66 0 -82.5 -38t-16.5 -179z" />
<glyph unicode="&#xbb;" horiz-adv-x="1212" d="M125 45l178 440l-178 437h289l217 -437l-217 -440h-289zM608 45l178 440l-178 437h289l217 -437l-217 -440h-289z" />
<glyph unicode="&#xbc;" horiz-adv-x="1888" d="M96 1251v256h404v-999h-293v743h-111zM449 0l507 1507h312l-506 -1507h-313zM1024 184v238l319 577h295l-323 -583h131v149h270v-149h84v-232h-84v-184h-270v184h-422z" />
<glyph unicode="&#xbd;" horiz-adv-x="1959" d="M96 1251v256h404v-999h-293v743h-111zM449 0l507 1507h312l-506 -1507h-313zM1153 0v225l289 283q78 73 95 101t17 85q0 35 -18 47.5t-68 12.5q-104 0 -262 -27l-41 252q148 37 305 37q113 0 181.5 -13t111.5 -48.5t58.5 -91.5t15.5 -150q0 -115 -35 -177t-172 -194 l-82 -90h307v-252h-702z" />
<glyph unicode="&#xbe;" horiz-adv-x="2074" d="M86 1249v256h653v-241l-168 -156q115 -22 156 -70q55 -58 55 -188q0 -84 -9.5 -133t-35.5 -84q-48 -66 -186 -97.5t-442 -43.5l-19 253q212 8 295.5 16.5t108.5 29.5q16 14 16 65q0 41 -16 55q-18 14 -63 21t-142 16v176l149 125h-352zM635 0l508 1507h311l-506 -1507 h-313zM1210 184v238l320 577h295l-324 -583h131v149h271v-149h84v-232h-84v-184h-271v184h-422z" />
<glyph unicode="&#xbf;" horiz-adv-x="1146" d="M55 385q0 109 15.5 176.5t65 126t125 102t212.5 101.5v133h340v-270q-103 -47 -158.5 -73.5t-105.5 -56.5t-69.5 -47t-34.5 -46t-17 -52t-2 -67q0 -75 37.5 -98t152.5 -23q100 0 227 15t193 32l56 -318q-66 -17 -210 -33t-272 -16q-119 0 -202.5 7.5t-147 27.5t-102 49 t-62.5 78t-32.5 108t-8.5 144zM446 1124v383h398v-383h-398z" />
<glyph unicode="&#xc0;" horiz-adv-x="1345" d="M27 0l491 1513h340l463 -1513h-395l-52 188h-419l-56 -188h-372zM250 2005h446l156 -422h-268zM541 492h252l-123 460z" />
<glyph unicode="&#xc1;" horiz-adv-x="1345" d="M27 0l491 1513h340l463 -1513h-395l-52 188h-419l-56 -188h-372zM514 1583l156 422h446l-334 -422h-268zM541 492h252l-123 460z" />
<glyph unicode="&#xc2;" horiz-adv-x="1345" d="M27 0l491 1513h340l463 -1513h-395l-52 188h-419l-56 -188h-372zM262 1573l254 424h309l254 -424h-248l-163 162l-164 -162h-242zM541 492h252l-123 460z" />
<glyph unicode="&#xc3;" horiz-adv-x="1345" d="M27 0l491 1513h340l463 -1513h-395l-52 188h-419l-56 -188h-372zM250 1772l76 67q150 131 231 131q56 0 148 -47q10 -5 28 -14.5t27.5 -14.5t22.5 -11t22.5 -8.5t17.5 -2.5q28 0 84 49l58 51l159 -207l-65 -57q-157 -141 -242 -141q-54 0 -158 55q-88 43 -108 43 q-31 0 -84 -49l-57 -51zM541 492h252l-123 460z" />
<glyph unicode="&#xc4;" horiz-adv-x="1345" d="M27 0l491 1513h340l463 -1513h-395l-52 188h-419l-56 -188h-372zM66 1206v301h307v-301h-307zM541 492h252l-123 460zM999 1204v301h308v-301h-308z" />
<glyph unicode="&#xc5;" horiz-adv-x="1345" d="M27 0l462 1423q-54 25 -79 75.5t-25 137.5q0 144 69.5 197t231.5 53q161 0 231 -53t70 -197q0 -86 -24.5 -136t-77.5 -75l436 -1425h-395l-52 188h-419l-56 -188h-372zM541 492h252l-123 460zM582 1636q0 -73 20 -93.5t84 -20.5t85.5 21t21.5 93q0 75 -22 98t-85 23 t-83.5 -23t-20.5 -98z" />
<glyph unicode="&#xc6;" horiz-adv-x="1953" d="M27 0l778 1507h1083v-329h-549v-260h418v-322h-418v-274h549v-322h-907v315h-412l-157 -315h-385zM721 625h260v510z" />
<glyph unicode="&#xc7;" horiz-adv-x="1099" d="M55 754q0 161 14.5 280.5t48.5 205.5t81 141t119.5 87.5t156 45t199.5 12.5q59 0 107 -1.5t89.5 -5.5t62 -6.5t60 -8.5t49.5 -7l-53 -321q-164 24 -321 24q-73 0 -114.5 -14t-68 -58t-35 -114t-8.5 -193v-131q0 -98 6 -161t20 -111t41 -73t65.5 -36.5t97.5 -11.5 q168 0 311 31l51 -316q-163 -28 -319 -30l35 -283q-43 -38 -148.5 -76.5t-247.5 -54.5l-39 242q55 7 110.5 22t78.5 27l-17 133q-95 12 -164 42t-121.5 85.5t-84 141.5t-47 207t-15.5 286z" />
<glyph unicode="&#xc8;" horiz-adv-x="1112" d="M102 0v1507h945v-329h-568v-260h436v-322h-436v-274h568v-322h-945zM133 2005h447l155 -422h-268z" />
<glyph unicode="&#xc9;" horiz-adv-x="1112" d="M102 0v1507h945v-329h-568v-260h436v-322h-436v-274h568v-322h-945zM379 1583l156 422h446l-334 -422h-268z" />
<glyph unicode="&#xca;" horiz-adv-x="1112" d="M102 0v1507h945v-329h-568v-260h436v-322h-436v-274h568v-322h-945zM145 1583l254 424h310l254 -424h-248l-164 162l-164 -162h-242z" />
<glyph unicode="&#xcb;" horiz-adv-x="1112" d="M102 0v1507h945v-329h-568v-260h436v-322h-436v-274h568v-322h-945zM195 1585v318h319v-318h-319zM600 1585v318h322v-318h-322z" />
<glyph unicode="&#xcc;" horiz-adv-x="602" d="M-123 2005h447l155 -422h-268zM113 0v1507h376v-1507h-376z" />
<glyph unicode="&#xcd;" horiz-adv-x="602" d="M113 0v1507h376v-1507h-376zM123 1583l156 422h446l-334 -422h-268z" />
<glyph unicode="&#xce;" horiz-adv-x="602" d="M-111 1583l254 424h310l254 -424h-248l-164 162l-164 -162h-242zM113 0v1507h376v-1507h-376z" />
<glyph unicode="&#xcf;" horiz-adv-x="602" d="M-61 1585v318h319v-318h-319zM113 0v1507h376v-1507h-376zM344 1585v318h322v-318h-322z" />
<glyph unicode="&#xd0;" horiz-adv-x="1353" d="M39 629v252h106v624l539 2q94 0 161.5 -5t132 -19t107.5 -38t81.5 -64t61.5 -94.5t40 -132.5t23.5 -174.5t6.5 -223.5t-7 -224t-24 -175t-40 -133t-62 -95.5t-82 -65t-107.5 -39t-131.5 -19.5t-160 -5l-539 -2v631h-106zM522 287h164q59 0 98 14t64.5 41t39 79t18.5 116 t5 165v103q0 101 -5 164t-18.5 113.5t-39.5 76.5t-64.5 38.5t-97.5 12.5h-164v-329h183v-252h-183v-342z" />
<glyph unicode="&#xd1;" d="M102 0v1507h353l458 -749v749h355v-1507h-310l-503 823v-823h-353zM260 1772l76 67q150 131 231 131q56 0 148 -47q9 -5 27.5 -14.5t28.5 -14.5t23 -11t22.5 -8.5t17.5 -2.5q28 0 84 49l57 51l160 -207l-66 -57q-157 -141 -242 -141q-53 0 -157 55q-88 43 -109 43 q-31 0 -84 -49l-57 -51z" />
<glyph unicode="&#xd2;" d="M55 754q0 164 16 286.5t52.5 208.5t85.5 141t124 86.5t157.5 43.5t197.5 12q98 0 171.5 -8.5t141.5 -30t115.5 -59t87 -95t62 -139.5t35 -191.5t12.5 -250.5q0 -142 -12.5 -252t-36 -192.5t-63 -141.5t-87.5 -97.5t-116 -60.5t-142 -30.5t-172 -8.5t-171.5 8.5t-142 30 t-116 59.5t-87.5 96.5t-63.5 140.5t-36 192t-12.5 252zM291 2005h446l156 -422h-268zM442 684q0 -125 11 -200.5t41 -120t74.5 -59.5t119.5 -15q76 0 119.5 14t72.5 58.5t38.5 117.5t9.5 201v135q0 85 -4.5 144t-16 104.5t-28.5 73t-46 44.5t-63.5 23t-85.5 6 q-100 0 -149 -29t-71 -111t-22 -249v-137z" />
<glyph unicode="&#xd3;" d="M55 754q0 164 16 286.5t52.5 208.5t85.5 141t124 86.5t157.5 43.5t197.5 12q98 0 171.5 -8.5t141.5 -30t115.5 -59t87 -95t62 -139.5t35 -191.5t12.5 -250.5q0 -142 -12.5 -252t-36 -192.5t-63 -141.5t-87.5 -97.5t-116 -60.5t-142 -30.5t-172 -8.5t-171.5 8.5t-142 30 t-116 59.5t-87.5 96.5t-63.5 140.5t-36 192t-12.5 252zM442 684q0 -125 11 -200.5t41 -120t74.5 -59.5t119.5 -15q76 0 119.5 14t72.5 58.5t38.5 117.5t9.5 201v135q0 85 -4.5 144t-16 104.5t-28.5 73t-46 44.5t-63.5 23t-85.5 6q-100 0 -149 -29t-71 -111t-22 -249v-137z M475 1583l156 422h446l-334 -422h-268z" />
<glyph unicode="&#xd4;" d="M55 754q0 164 16 286.5t52.5 208.5t85.5 141t124 86.5t157.5 43.5t197.5 12q98 0 171.5 -8.5t141.5 -30t115.5 -59t87 -95t62 -139.5t35 -191.5t12.5 -250.5q0 -142 -12.5 -252t-36 -192.5t-63 -141.5t-87.5 -97.5t-116 -60.5t-142 -30.5t-172 -8.5t-171.5 8.5t-142 30 t-116 59.5t-87.5 96.5t-63.5 140.5t-36 192t-12.5 252zM274 1583l254 424h310l254 -424h-248l-164 162l-164 -162h-242zM442 684q0 -125 11 -200.5t41 -120t74.5 -59.5t119.5 -15q76 0 119.5 14t72.5 58.5t38.5 117.5t9.5 201v135q0 85 -4.5 144t-16 104.5t-28.5 73 t-46 44.5t-63.5 23t-85.5 6q-100 0 -149 -29t-71 -111t-22 -249v-137z" />
<glyph unicode="&#xd5;" d="M55 754q0 164 16 286.5t52.5 208.5t85.5 141t124 86.5t157.5 43.5t197.5 12q98 0 171.5 -8.5t141.5 -30t115.5 -59t87 -95t62 -139.5t35 -191.5t12.5 -250.5q0 -142 -12.5 -252t-36 -192.5t-63 -141.5t-87.5 -97.5t-116 -60.5t-142 -30.5t-172 -8.5t-171.5 8.5t-142 30 t-116 59.5t-87.5 96.5t-63.5 140.5t-36 192t-12.5 252zM262 1772l76 67q150 131 231 131q56 0 148 -47q9 -5 27.5 -14.5t28.5 -14.5t23 -11t22.5 -8.5t17.5 -2.5q28 0 84 49l57 51l160 -207l-66 -57q-157 -141 -242 -141q-53 0 -157 55q-88 43 -109 43q-31 0 -84 -49 l-57 -51zM442 684q0 -125 11 -200.5t41 -120t74.5 -59.5t119.5 -15q76 0 119.5 14t72.5 58.5t38.5 117.5t9.5 201v135q0 85 -4.5 144t-16 104.5t-28.5 73t-46 44.5t-63.5 23t-85.5 6q-100 0 -149 -29t-71 -111t-22 -249v-137z" />
<glyph unicode="&#xd6;" d="M55 754q0 164 16 286.5t52.5 208.5t85.5 141t124 86.5t157.5 43.5t197.5 12q98 0 171.5 -8.5t141.5 -30t115.5 -59t87 -95t62 -139.5t35 -191.5t12.5 -250.5q0 -142 -12.5 -252t-36 -192.5t-63 -141.5t-87.5 -97.5t-116 -60.5t-142 -30.5t-172 -8.5t-171.5 8.5t-142 30 t-116 59.5t-87.5 96.5t-63.5 140.5t-36 192t-12.5 252zM324 1585v318h319v-318h-319zM442 684q0 -125 11 -200.5t41 -120t74.5 -59.5t119.5 -15q76 0 119.5 14t72.5 58.5t38.5 117.5t9.5 201v135q0 85 -4.5 144t-16 104.5t-28.5 73t-46 44.5t-63.5 23t-85.5 6 q-100 0 -149 -29t-71 -111t-22 -249v-137zM729 1585v318h322v-318h-322z" />
<glyph unicode="&#xd7;" horiz-adv-x="1019" d="M63 432l263 260l-263 260l187 185l260 -260l262 260l184 -185l-262 -260l262 -260l-184 -186l-262 262l-260 -262z" />
<glyph unicode="&#xd8;" d="M51 -154l152 275q-76 86 -112 238t-36 395q0 164 16 286.5t52.5 208.5t85.5 141t124 86.5t157.5 43.5t197.5 12q169 0 285 -29l88 158h256l-152 -272q76 -84 112 -236.5t36 -394.5q0 -142 -12.5 -252t-36 -192.5t-63 -141.5t-87.5 -97.5t-116 -60.5t-142 -30.5t-172 -8.5 q-178 0 -289 31l-88 -160h-256zM436 684q0 -55 4 -137l367 659q-45 19 -123 19q-76 0 -121 -15.5t-75 -61.5t-41 -122.5t-11 -204.5v-137zM557 295q50 -23 131 -23q76 0 121 16t74 63.5t39 123.5t10 205v135q0 60 -4 146z" />
<glyph unicode="&#xd9;" horiz-adv-x="1335" d="M84 528v979h379v-966q0 -73 11.5 -117.5t40.5 -68t65.5 -31t97.5 -7.5q63 0 98.5 6.5t64 29t39.5 66.5t11 118v970h358v-975q0 -113 -11.5 -195t-40 -144.5t-70.5 -102.5t-108 -65t-148 -35t-195 -10q-173 0 -279.5 22t-180 83.5t-103 167t-29.5 275.5zM244 2005h446 l156 -422h-268z" />
<glyph unicode="&#xda;" horiz-adv-x="1335" d="M84 528v979h379v-966q0 -73 11.5 -117.5t40.5 -68t65.5 -31t97.5 -7.5q63 0 98.5 6.5t64 29t39.5 66.5t11 118v970h358v-975q0 -113 -11.5 -195t-40 -144.5t-70.5 -102.5t-108 -65t-148 -35t-195 -10q-173 0 -279.5 22t-180 83.5t-103 167t-29.5 275.5zM489 1583l156 422 h447l-334 -422h-269z" />
<glyph unicode="&#xdb;" horiz-adv-x="1335" d="M84 528v979h379v-966q0 -73 11.5 -117.5t40.5 -68t65.5 -31t97.5 -7.5q63 0 98.5 6.5t64 29t39.5 66.5t11 118v970h358v-975q0 -113 -11.5 -195t-40 -144.5t-70.5 -102.5t-108 -65t-148 -35t-195 -10q-173 0 -279.5 22t-180 83.5t-103 167t-29.5 275.5zM256 1583l254 424 h309l254 -424h-248l-163 162l-164 -162h-242z" />
<glyph unicode="&#xdc;" horiz-adv-x="1335" d="M84 528v979h379v-966q0 -73 11.5 -117.5t40.5 -68t65.5 -31t97.5 -7.5q63 0 98.5 6.5t64 29t39.5 66.5t11 118v970h358v-975q0 -113 -11.5 -195t-40 -144.5t-70.5 -102.5t-108 -65t-148 -35t-195 -10q-173 0 -279.5 22t-180 83.5t-103 167t-29.5 275.5zM305 1585v318h320 v-318h-320zM711 1585v318h321v-318h-321z" />
<glyph unicode="&#xdd;" horiz-adv-x="1368" d="M20 1507h400l274 -608l275 608h379l-476 -1030v-477h-376v473zM506 1583l156 422h446l-334 -422h-268z" />
<glyph unicode="&#xde;" horiz-adv-x="1243" d="M102 0v1507h375v-186h262q97 0 166 -12.5t129.5 -46.5t96.5 -93.5t56.5 -155t20.5 -229.5t-21 -230t-57.5 -156.5t-97.5 -95t-130 -47.5t-165 -13h-260v-242h-375zM477 545h236q63 0 93 53t30 182q0 127 -31.5 179.5t-93.5 52.5h-234v-467z" />
<glyph unicode="&#xdf;" horiz-adv-x="1269" d="M47 711v282h111v191q0 188 100.5 261t355.5 73q137 0 222 -15t144 -56t83 -110.5t24 -181.5q0 -98 -38 -152t-148 -124q202 -40 264 -121q70 -85 70 -287q0 -133 -17 -209t-65 -121q-68 -62 -186.5 -96t-323.5 -57l-41 288q112 14 171.5 31t86.5 45q20 21 24.5 46t4.5 75 q0 51 -4 76t-21 45q-25 28 -76 43.5t-143 28.5v235q65 98 85 144.5t20 111.5q0 57 -29 72.5t-117 15.5q-48 0 -69 -17t-21 -71v-1157h-356v711h-111z" />
<glyph unicode="&#xe0;" horiz-adv-x="1015" d="M41 336q0 93 15 141t57 78q46 38 156 55t315 17v53q0 32 -20.5 45.5t-67.5 13.5q-162 0 -334 -28l-33 274q170 31 373 31q131 0 215.5 -17t133 -55.5t67 -91t18.5 -133.5v-719h-305q-29 90 -31 90q-172 -104 -334 -104q-106 0 -165.5 88.5t-59.5 261.5zM94 1503h447 l155 -422h-268zM397 348q0 -58 17.5 -84t58.5 -26q49 0 111 16v203q-130 -3 -162 -25q-16 -10 -20.5 -28t-4.5 -56z" />
<glyph unicode="&#xe1;" horiz-adv-x="1015" d="M41 336q0 93 15 141t57 78q46 38 156 55t315 17v53q0 32 -20.5 45.5t-67.5 13.5q-162 0 -334 -28l-33 274q170 31 373 31q131 0 215.5 -17t133 -55.5t67 -91t18.5 -133.5v-719h-305q-29 90 -31 90q-172 -104 -334 -104q-106 0 -165.5 88.5t-59.5 261.5zM319 1081l156 422 h447l-334 -422h-269zM397 348q0 -58 17.5 -84t58.5 -26q49 0 111 16v203q-130 -3 -162 -25q-16 -10 -20.5 -28t-4.5 -56z" />
<glyph unicode="&#xe2;" horiz-adv-x="1015" d="M41 336q0 93 15 141t57 78q46 38 156 55t315 17v53q0 32 -20.5 45.5t-67.5 13.5q-162 0 -334 -28l-33 274q170 31 373 31q131 0 215.5 -17t133 -55.5t67 -91t18.5 -133.5v-719h-305q-29 90 -31 90q-172 -104 -334 -104q-106 0 -165.5 88.5t-59.5 261.5zM96 1081l254 424 h309l254 -424h-247l-164 162l-164 -162h-242zM397 348q0 -58 17.5 -84t58.5 -26q49 0 111 16v203q-130 -3 -162 -25q-16 -10 -20.5 -28t-4.5 -56z" />
<glyph unicode="&#xe3;" horiz-adv-x="1015" d="M41 336q0 93 15 141t57 78q46 38 156 55t315 17v53q0 32 -20.5 45.5t-67.5 13.5q-162 0 -334 -28l-33 274q170 31 373 31q131 0 215.5 -17t133 -55.5t67 -91t18.5 -133.5v-719h-305q-29 90 -31 90q-172 -104 -334 -104q-106 0 -165.5 88.5t-59.5 261.5zM84 1270l76 67 q150 131 231 131q56 0 148 -47q10 -5 28 -14.5t27.5 -14.5t22.5 -11t22.5 -8.5t17.5 -2.5q28 0 84 49l58 51l159 -206l-65 -58q-157 -141 -242 -141q-53 0 -157 55q-88 43 -109 43q-31 0 -84 -49l-57 -51zM397 348q0 -58 17.5 -84t58.5 -26q49 0 111 16v203 q-130 -3 -162 -25q-16 -10 -20.5 -28t-4.5 -56z" />
<glyph unicode="&#xe4;" horiz-adv-x="1015" d="M41 336q0 93 15 141t57 78q46 38 156 55t315 17v53q0 32 -20.5 45.5t-67.5 13.5q-162 0 -334 -28l-33 274q170 31 373 31q131 0 215.5 -17t133 -55.5t67 -91t18.5 -133.5v-719h-305q-29 90 -31 90q-172 -104 -334 -104q-106 0 -165.5 88.5t-59.5 261.5zM145 1083v318h320 v-318h-320zM397 348q0 -58 17.5 -84t58.5 -26q49 0 111 16v203q-130 -3 -162 -25q-16 -10 -20.5 -28t-4.5 -56zM551 1083v318h321v-318h-321z" />
<glyph unicode="&#xe5;" horiz-adv-x="1015" d="M41 336q0 93 15 141t57 78q46 38 156 55t315 17v53q0 32 -20.5 45.5t-67.5 13.5q-162 0 -334 -28l-33 274q170 31 373 31q131 0 215.5 -17t133 -55.5t67 -91t18.5 -133.5v-719h-305q-29 90 -31 90q-172 -104 -334 -104q-106 0 -165.5 88.5t-59.5 261.5zM207 1313 q0 144 69.5 197t231.5 53q161 0 231 -53t70 -197q0 -73 -18 -120.5t-57.5 -74.5t-92.5 -37t-133 -10q-163 0 -232 50t-69 192zM397 348q0 -58 17.5 -84t58.5 -26q49 0 111 16v203q-130 -3 -162 -25q-16 -10 -20.5 -28t-4.5 -56zM403 1313q0 -73 20.5 -94t84.5 -21t85 21 t21 94q0 75 -21.5 98t-84.5 23t-84 -23t-21 -98z" />
<glyph unicode="&#xe6;" horiz-adv-x="1492" d="M41 336q0 94 18 147.5t66 81.5q56 33 157.5 47.5t301.5 14.5v53q0 32 -20.5 45.5t-67.5 13.5q-162 0 -334 -28l-33 274q170 31 373 31q208 0 284 -64q92 64 234 64q82 0 140 -7.5t108 -27t82 -52.5t54.5 -84.5t32 -122t9.5 -167.5v-143h-518q2 -85 34.5 -115.5 t135.5 -30.5q123 0 262 25l45 -264q-156 -37 -303 -37q-179 0 -280.5 25.5t-155.5 95.5q-83 -55 -192 -90t-208 -35q-106 0 -165.5 88.5t-59.5 261.5zM397 348q0 -58 17.5 -84t58.5 -26q65 0 129 24q-15 80 -18 193q-129 0 -162 -23q-16 -10 -20.5 -26.5t-4.5 -57.5z M928 608h186q0 78 -8 112t-26.5 45t-61.5 11q-39 0 -57 -12.5t-25.5 -47t-7.5 -108.5z" />
<glyph unicode="&#xe7;" horiz-adv-x="849" d="M53 502q0 112 11.5 194t39 139t64 92.5t95.5 55t123 26.5t157 7q134 0 260 -29l-49 -276q-113 20 -215 20q-82 0 -105.5 -43.5t-23.5 -183.5q0 -142 25 -190t106 -48q95 0 213 23l49 -269q-88 -22 -217 -28l37 -293q-43 -38 -148.5 -76.5t-247.5 -54.5l-39 242 q55 7 110.5 22t78.5 27l-17 139q-112 16 -176.5 64.5t-97.5 154t-33 285.5z" />
<glyph unicode="&#xe8;" horiz-adv-x="978" d="M53 502q0 108 12.5 189.5t39 138t61.5 93t88 57t110.5 28.5t135.5 8q82 0 140 -7.5t108 -27t82 -52.5t54.5 -84.5t32 -122t9.5 -167.5v-143h-518q2 -85 34.5 -115.5t135.5 -30.5q123 0 262 25l45 -264q-156 -37 -303 -37q-103 0 -173.5 7t-134 27t-102 55t-67.5 92.5 t-40.5 138t-11.5 192.5zM92 1503h447l155 -422h-268zM408 608h186q0 78 -8 112t-26.5 45t-61.5 11q-39 0 -57 -12.5t-25.5 -47t-7.5 -108.5z" />
<glyph unicode="&#xe9;" horiz-adv-x="978" d="M53 502q0 108 12.5 189.5t39 138t61.5 93t88 57t110.5 28.5t135.5 8q82 0 140 -7.5t108 -27t82 -52.5t54.5 -84.5t32 -122t9.5 -167.5v-143h-518q2 -85 34.5 -115.5t135.5 -30.5q123 0 262 25l45 -264q-156 -37 -303 -37q-103 0 -173.5 7t-134 27t-102 55t-67.5 92.5 t-40.5 138t-11.5 192.5zM276 1081l156 422h447l-334 -422h-269zM408 608h186q0 78 -8 112t-26.5 45t-61.5 11q-39 0 -57 -12.5t-25.5 -47t-7.5 -108.5z" />
<glyph unicode="&#xea;" horiz-adv-x="978" d="M53 502q0 108 12.5 189.5t39 138t61.5 93t88 57t110.5 28.5t135.5 8q82 0 140 -7.5t108 -27t82 -52.5t54.5 -84.5t32 -122t9.5 -167.5v-143h-518q2 -85 34.5 -115.5t135.5 -30.5q123 0 262 25l45 -264q-156 -37 -303 -37q-103 0 -173.5 7t-134 27t-102 55t-67.5 92.5 t-40.5 138t-11.5 192.5zM76 1081l254 424h309l254 -424h-248l-164 162l-164 -162h-241zM408 608h186q0 78 -8 112t-26.5 45t-61.5 11q-39 0 -57 -12.5t-25.5 -47t-7.5 -108.5z" />
<glyph unicode="&#xeb;" horiz-adv-x="978" d="M53 502q0 108 12.5 189.5t39 138t61.5 93t88 57t110.5 28.5t135.5 8q82 0 140 -7.5t108 -27t82 -52.5t54.5 -84.5t32 -122t9.5 -167.5v-143h-518q2 -85 34.5 -115.5t135.5 -30.5q123 0 262 25l45 -264q-156 -37 -303 -37q-103 0 -173.5 7t-134 27t-102 55t-67.5 92.5 t-40.5 138t-11.5 192.5zM125 1083v318h319v-318h-319zM408 608h186q0 78 -8 112t-26.5 45t-61.5 11q-39 0 -57 -12.5t-25.5 -47t-7.5 -108.5zM530 1083v318h322v-318h-322z" />
<glyph unicode="&#xec;" horiz-adv-x="555" d="M-147 1503h446l156 -422h-269zM98 0v993h357v-993h-357z" />
<glyph unicode="&#xed;" horiz-adv-x="555" d="M98 0v993h357v-993h-357zM98 1081l156 422h446l-333 -422h-269z" />
<glyph unicode="&#xee;" horiz-adv-x="555" d="M-135 1081l254 424h309l254 -424h-248l-164 162l-164 -162h-241zM98 0v993h357v-993h-357z" />
<glyph unicode="&#xef;" horiz-adv-x="555" d="M-86 1083v318h319v-318h-319zM98 0v993h357v-993h-357zM319 1083v318h322v-318h-322z" />
<glyph unicode="&#xf0;" horiz-adv-x="1097" d="M55 496q0 111 10 194t30.5 136.5t45.5 87.5t63.5 51t74 22.5t86.5 5.5q55 0 140.5 -19t151.5 -48q-6 62 -24 129h-223v288h131q-16 46 -43 109l342 88q32 -73 71 -197h189v-288h-113q51 -244 51 -457q0 -136 -10 -232t-36 -166t-61 -111.5t-94.5 -66t-126.5 -32.5 t-167 -8q-68 0 -118.5 3.5t-100.5 13t-85 26.5t-67 44t-52.5 65t-36 90.5t-22 119.5t-6.5 152zM414 494q0 -93 4.5 -142t21 -78t40 -36t69.5 -7q35 0 57 7t37.5 23t23 49.5t10.5 77.5t3 116q0 106 -6 186q-75 27 -158 27q-42 0 -61.5 -13t-30 -60.5t-10.5 -149.5z" />
<glyph unicode="&#xf1;" horiz-adv-x="1097" d="M88 0v993h309l29 -90q71 45 175.5 77t180.5 32q119 0 176.5 -52t57.5 -161v-799h-357v653q0 31 -17.5 42.5t-63.5 11.5q-67 0 -132 -17v-690h-358zM125 1270l76 67q150 131 231 131q56 0 148 -47q10 -5 28 -14.5t27.5 -14.5t22.5 -11t22.5 -8.5t17.5 -2.5q28 0 84 49 l58 51l159 -206l-65 -58q-157 -141 -242 -141q-53 0 -157 55q-88 43 -109 43q-31 0 -84 -49l-57 -51z" />
<glyph unicode="&#xf2;" horiz-adv-x="1071" d="M53 500q0 110 11.5 191t38 138.5t63 93.5t94.5 57t122.5 28.5t156.5 7.5q78 0 135 -5.5t110 -19t88.5 -38.5t65 -62.5t46 -92.5t25.5 -127t9 -167q0 -110 -11.5 -191t-38 -139t-62.5 -94t-93.5 -57t-122 -29t-155.5 -8q-92 0 -156.5 7.5t-122 28t-93 56.5t-62 93.5 t-37.5 137.5t-11 191zM141 1503h447l155 -422h-268zM410 502q0 -164 22.5 -212t104.5 -48t103.5 47t21.5 211q0 113 -9 163t-34.5 69.5t-83.5 19.5q-44 0 -67 -8t-37 -37.5t-17.5 -73.5t-3.5 -131z" />
<glyph unicode="&#xf3;" horiz-adv-x="1071" d="M53 500q0 110 11.5 191t38 138.5t63 93.5t94.5 57t122.5 28.5t156.5 7.5q78 0 135 -5.5t110 -19t88.5 -38.5t65 -62.5t46 -92.5t25.5 -127t9 -167q0 -110 -11.5 -191t-38 -139t-62.5 -94t-93.5 -57t-122 -29t-155.5 -8q-92 0 -156.5 7.5t-122 28t-93 56.5t-62 93.5 t-37.5 137.5t-11 191zM326 1081l155 422h447l-334 -422h-268zM410 502q0 -164 22.5 -212t104.5 -48t103.5 47t21.5 211q0 113 -9 163t-34.5 69.5t-83.5 19.5q-44 0 -67 -8t-37 -37.5t-17.5 -73.5t-3.5 -131z" />
<glyph unicode="&#xf4;" horiz-adv-x="1071" d="M53 500q0 110 11.5 191t38 138.5t63 93.5t94.5 57t122.5 28.5t156.5 7.5q78 0 135 -5.5t110 -19t88.5 -38.5t65 -62.5t46 -92.5t25.5 -127t9 -167q0 -110 -11.5 -191t-38 -139t-62.5 -94t-93.5 -57t-122 -29t-155.5 -8q-92 0 -156.5 7.5t-122 28t-93 56.5t-62 93.5 t-37.5 137.5t-11 191zM125 1081l254 424h309l254 -424h-248l-164 162l-163 -162h-242zM410 502q0 -164 22.5 -212t104.5 -48t103.5 47t21.5 211q0 113 -9 163t-34.5 69.5t-83.5 19.5q-44 0 -67 -8t-37 -37.5t-17.5 -73.5t-3.5 -131z" />
<glyph unicode="&#xf5;" horiz-adv-x="1071" d="M53 500q0 110 11.5 191t38 138.5t63 93.5t94.5 57t122.5 28.5t156.5 7.5q78 0 135 -5.5t110 -19t88.5 -38.5t65 -62.5t46 -92.5t25.5 -127t9 -167q0 -110 -11.5 -191t-38 -139t-62.5 -94t-93.5 -57t-122 -29t-155.5 -8q-92 0 -156.5 7.5t-122 28t-93 56.5t-62 93.5 t-37.5 137.5t-11 191zM113 1270l75 67q150 131 232 131q55 0 147 -47q9 -5 27.5 -14.5t28.5 -14.5t23 -11t22.5 -8.5t17.5 -2.5q28 0 84 49l57 51l160 -206l-65 -58q-157 -141 -242 -141q-54 0 -158 55q-88 43 -108 43q-31 0 -84 -49l-58 -51zM410 502q0 -164 22.5 -212 t104.5 -48t103.5 47t21.5 211q0 113 -9 163t-34.5 69.5t-83.5 19.5q-44 0 -67 -8t-37 -37.5t-17.5 -73.5t-3.5 -131z" />
<glyph unicode="&#xf6;" horiz-adv-x="1071" d="M53 500q0 110 11.5 191t38 138.5t63 93.5t94.5 57t122.5 28.5t156.5 7.5q78 0 135 -5.5t110 -19t88.5 -38.5t65 -62.5t46 -92.5t25.5 -127t9 -167q0 -110 -11.5 -191t-38 -139t-62.5 -94t-93.5 -57t-122 -29t-155.5 -8q-92 0 -156.5 7.5t-122 28t-93 56.5t-62 93.5 t-37.5 137.5t-11 191zM174 1083v318h320v-318h-320zM410 502q0 -164 22.5 -212t104.5 -48t103.5 47t21.5 211q0 113 -9 163t-34.5 69.5t-83.5 19.5q-44 0 -67 -8t-37 -37.5t-17.5 -73.5t-3.5 -131zM580 1083v318h321v-318h-321z" />
<glyph unicode="&#xf7;" horiz-adv-x="1019" d="M68 555v274h884v-274h-884zM356 160v319h306v-319h-306zM356 907v318h306v-318h-306z" />
<glyph unicode="&#xf8;" horiz-adv-x="1071" d="M53 500q0 110 11.5 191t38 138.5t63 93.5t94.5 57t122.5 28.5t156.5 7.5q108 0 172 -10l77 141h213l-114 -205q68 -53 99.5 -156.5t31.5 -281.5q0 -110 -11.5 -191t-38 -139t-62.5 -94t-93.5 -57t-122 -29t-155.5 -8q-113 0 -177 10l-77 -141h-211l114 204 q-69 52 -100 157t-31 284zM395 440l187 336q-12 4 -47 4q-63 0 -90.5 -20t-38.5 -76t-11 -182v-62zM483 219q21 -6 54 -6q62 0 90 23t38.5 80.5t10.5 183.5v61z" />
<glyph unicode="&#xf9;" horiz-adv-x="1097" d="M82 195v798h356v-661q0 -30 18.5 -41.5t65.5 -11.5q59 0 131 16v698h357v-993h-308l-30 90q-68 -42 -170 -75t-187 -33q-117 0 -175 52.5t-58 160.5zM125 1503h446l156 -422h-268z" />
<glyph unicode="&#xfa;" horiz-adv-x="1097" d="M82 195v798h356v-661q0 -30 18.5 -41.5t65.5 -11.5q59 0 131 16v698h357v-993h-308l-30 90q-68 -42 -170 -75t-187 -33q-117 0 -175 52.5t-58 160.5zM371 1081l155 422h447l-334 -422h-268z" />
<glyph unicode="&#xfb;" horiz-adv-x="1097" d="M82 195v798h356v-661q0 -30 18.5 -41.5t65.5 -11.5q59 0 131 16v698h357v-993h-308l-30 90q-68 -42 -170 -75t-187 -33q-117 0 -175 52.5t-58 160.5zM137 1081l254 424h309l254 -424h-247l-164 162l-164 -162h-242z" />
<glyph unicode="&#xfc;" horiz-adv-x="1097" d="M82 195v798h356v-661q0 -30 18.5 -41.5t65.5 -11.5q59 0 131 16v698h357v-993h-308l-30 90q-68 -42 -170 -75t-187 -33q-117 0 -175 52.5t-58 160.5zM186 1083v318h320v-318h-320zM592 1083v318h321v-318h-321z" />
<glyph unicode="&#xfd;" horiz-adv-x="1067" d="M10 993h363l174 -518l174 518h332l-494 -1360h-346l149 406zM365 1081l155 422h447l-334 -422h-268z" />
<glyph unicode="&#xfe;" horiz-adv-x="1099" d="M88 -367v1907h356v-627q75 41 168.5 70t169.5 29q95 0 151 -47t83.5 -158t27.5 -305q0 -193 -29 -307t-85.5 -161.5t-151.5 -47.5q-83 0 -176.5 20t-157.5 49v-422h-356zM444 279q83 -9 152 -9q33 0 51 17.5t27.5 67.5t9.5 143q0 95 -8.5 139.5t-26 58t-55.5 13.5 q-80 0 -150 -17v-413z" />
<glyph unicode="&#xff;" horiz-adv-x="1067" d="M10 993h363l174 -518l174 518h332l-494 -1360h-346l149 406zM174 1083v318h320v-318h-320zM580 1083v318h321v-318h-321z" />
<glyph unicode="&#x152;" horiz-adv-x="1798" d="M55 750q0 127 7 224t24 175t40.5 133.5t62 96t82 65t107.5 39t131.5 19.5t160.5 5h1063v-329h-549v-260h418v-322h-418v-274h549v-322h-1063q-95 0 -162.5 5t-132 19t-107.5 38t-81.5 64t-61.5 94.5t-40 132t-23.5 174.5t-6.5 223zM438 700q0 -124 8.5 -195.5 t34.5 -118.5t69 -63t116 -16h161v883h-161q-59 0 -97 -11.5t-65 -36.5t-41 -73.5t-19.5 -112.5t-5.5 -163v-93z" />
<glyph unicode="&#x153;" horiz-adv-x="1591" d="M53 500q0 111 11 191t37.5 138t62.5 94t94.5 57t124.5 28.5t160 7.5q225 0 305 -74q91 74 270 74q123 0 198.5 -18t129.5 -69t76 -140.5t22 -233.5v-143h-520q2 -85 34.5 -115.5t135.5 -30.5q123 0 262 25l47 -264q-156 -37 -305 -37q-124 3 -206.5 19.5t-139.5 58.5 q-44 -44 -118 -63t-193 -19q-95 0 -160.5 7.5t-123.5 28t-94 56.5t-62 93.5t-37 137.5t-11 191zM410 502q0 -69 3 -110.5t10.5 -73.5t23 -47t38 -22t58.5 -7q84 0 106.5 47t22.5 211q0 68 -3 109t-10.5 72t-23 45t-37 20t-57.5 6t-58 -6t-37.5 -19.5t-22.5 -44.5t-10 -71 t-3 -109zM1024 608h186q0 78 -8 112t-26.5 45t-61.5 11q-39 0 -57 -12.5t-25.5 -47t-7.5 -108.5z" />
<glyph unicode="&#x178;" horiz-adv-x="1368" d="M20 1507h400l274 -608l275 608h379l-476 -1030v-477h-376v473zM322 1585v318h319v-318h-319zM727 1585v318h322v-318h-322z" />
<glyph unicode="&#x2c6;" horiz-adv-x="933" d="M55 1081l254 424h309l254 -424h-247l-164 162l-164 -162h-242z" />
<glyph unicode="&#x2dc;" horiz-adv-x="972" d="M49 1270l76 67q150 131 231 131q56 0 148 -47q9 -5 27.5 -14.5t28.5 -14.5t23 -11t22.5 -8.5t17.5 -2.5q28 0 84 49l57 51l160 -206l-66 -58q-157 -141 -242 -141q-53 0 -157 55q-88 43 -109 43q-31 0 -84 -49l-57 -51z" />
<glyph unicode="&#x2000;" horiz-adv-x="1003" />
<glyph unicode="&#x2001;" horiz-adv-x="2007" />
<glyph unicode="&#x2002;" horiz-adv-x="1003" />
<glyph unicode="&#x2003;" horiz-adv-x="2007" />
<glyph unicode="&#x2004;" horiz-adv-x="669" />
<glyph unicode="&#x2005;" horiz-adv-x="501" />
<glyph unicode="&#x2006;" horiz-adv-x="334" />
<glyph unicode="&#x2007;" horiz-adv-x="334" />
<glyph unicode="&#x2008;" horiz-adv-x="250" />
<glyph unicode="&#x2009;" horiz-adv-x="401" />
<glyph unicode="&#x200a;" horiz-adv-x="111" />
<glyph unicode="&#x2010;" horiz-adv-x="698" d="M68 455v288h565v-288h-565z" />
<glyph unicode="&#x2011;" horiz-adv-x="698" d="M68 455v288h565v-288h-565z" />
<glyph unicode="&#x2012;" horiz-adv-x="698" d="M68 455v288h565v-288h-565z" />
<glyph unicode="&#x2013;" horiz-adv-x="993" d="M68 455v288h858v-288h-858z" />
<glyph unicode="&#x2014;" horiz-adv-x="1556" d="M68 455v288h1423v-288h-1423z" />
<glyph unicode="&#x2018;" horiz-adv-x="624" d="M61 987l312 594l157 -76l-90 -518h-379z" />
<glyph unicode="&#x2019;" horiz-adv-x="624" d="M94 987l90 520h379l-311 -596z" />
<glyph unicode="&#x201a;" horiz-adv-x="624" d="M94 -180l90 520h379l-311 -596z" />
<glyph unicode="&#x201c;" horiz-adv-x="1052" d="M72 987l313 594l143 -76l-90 -518h-366zM512 987l313 594l144 -76l-90 -518h-367z" />
<glyph unicode="&#x201d;" horiz-adv-x="1052" d="M84 987l90 520h367l-314 -596zM524 987l90 520h367l-313 -596z" />
<glyph unicode="&#x201e;" horiz-adv-x="1052" d="M84 -180l90 520h367l-314 -596zM524 -180l90 520h367l-313 -596z" />
<glyph unicode="&#x2022;" horiz-adv-x="964" d="M106 586q0 167 38 260t117 130.5t218 37.5q138 0 218.5 -38.5t120.5 -132.5t40 -261t-39 -260t-118 -130.5t-218 -37.5t-219 38.5t-119 132.5t-39 261z" />
<glyph unicode="&#x2026;" horiz-adv-x="2037" d="M119 0v397h428v-397h-428zM805 0v397h428v-397h-428zM1489 0v397h430v-397h-430z" />
<glyph unicode="&#x202f;" horiz-adv-x="401" />
<glyph unicode="&#x2039;" horiz-adv-x="743" d="M96 483l217 439h305l-178 -439l178 -438h-305z" />
<glyph unicode="&#x203a;" horiz-adv-x="743" d="M125 45l178 440l-178 437h305l217 -437l-217 -440h-305z" />
<glyph unicode="&#x205f;" horiz-adv-x="501" />
<glyph unicode="&#x20ac;" horiz-adv-x="1224" d="M35 483v222h176v96h-176v221h1h1h1h1h1h1h1h1h1h1h1h1h1h1h1h1h1h1h1h1h1h1h1h1h1h1h1h1h1h1h1h1h1h1h1h1h1h1h1h1h1h2h1h1h1h1h1h2h1h1h1h2h1h1h1h2h1h1h2h1h1h2h1h1h2h1h1h2h1h2h1h1h2h1h2h1h2h1h2h1h2h1h2h1h2h1h2h2h1h2h1h2h1h2h2h1h2h2h1h2h2h1h2h2h1h2h2h1h2h2h2h1 h2h2h2h1h2h2h2h2h1h2h2h2h2h2h1h2h2h2h2h2h8q19 153 62.5 252.5t119 154.5t169.5 76t233 21q68 0 126.5 -3.5t82 -6t75.5 -10.5t58 -9l-53 -321q-172 24 -295 24q-50 0 -81 -6t-57.5 -24.5t-41 -54t-23.5 -93.5h350v-221h-368v-96h368v-222h-350q18 -113 63.5 -149.5 t143.5 -36.5q160 0 285 27l51 -312q-159 -30 -338 -30q-141 0 -234.5 20.5t-167.5 75.5t-116 153.5t-60 251.5h-192z" />
<glyph unicode="&#x2122;" horiz-adv-x="1841" d="M59 1284v223h721v-223h-233v-704h-254v704h-234zM858 580v927h272l162 -559l148 559h280v-927h-231v569l-123 -533h-182l-123 533v-569h-203z" />
<glyph unicode="&#x25fc;" horiz-adv-x="993" d="M0 0v993h993v-993h-993z" />
<glyph unicode="&#xfb03;" horiz-adv-x="1751" d="M47 700v293h111v82q0 56 1.5 91t8.5 74t19.5 62t35.5 49t54.5 42t79 33.5t107 30.5t140.5 26l68 -318q-62 -15 -90 -24t-45.5 -25.5t-20 -33.5t-2.5 -56v-33h215v127q0 62 7 105.5t24 84t50 69t81 53.5t121.5 43t167 33.5t221.5 29.5l47 -307q-109 -18 -173.5 -31.5 t-106 -25t-58 -28t-21 -31.5t-4.5 -44v-78h572v-993h-357v702h-215v-702h-356v702h-215v-702h-356v700h-111z" />
<glyph unicode="&#xfb04;" horiz-adv-x="1748" d="M47 700v293h111v82q0 56 1.5 91t8.5 74t19.5 62t35.5 49t54.5 42t79 33.5t107 30.5t140.5 26l68 -318q-62 -15 -90 -24t-45.5 -25.5t-20 -33.5t-2.5 -56v-33h215v113q0 62 3.5 106t14 88t29.5 73.5t49.5 57.5t75 46t104.5 32t140 23l61 -326q-36 -7 -58 -15.5t-35 -17.5 t-19 -26.5t-7.5 -33.5t-1.5 -48v-72h117v-293h-117v-700h-356v700h-215v-700h-356v700h-111zM1300 0v1540h357v-1540h-357z" />
</font>
</defs>
</svg>
