<?xml version="1.0" standalone="no"?>
<!DOCTYPE svg PUBLIC "-//W3C//DTD SVG 1.1//EN" "http://www.w3.org/Graphics/SVG/1.1/DTD/svg11.dtd" >
<svg xmlns="http://www.w3.org/2000/svg">
<metadata></metadata>
<defs>
<font id="stainlesslight" horiz-adv-x="968" >
<font-face units-per-em="2048" ascent="1628" descent="-420" />
<missing-glyph horiz-adv-x="503" />
<glyph unicode="&#xfb01;" horiz-adv-x="1181" d="M53 817v135h170v207q0 68 14.5 115t53 88.5t109 70.5t177.5 53t263 44l16 -141q-112 -15 -190 -28.5t-132.5 -30.5t-85.5 -32.5t-48 -40t-22 -47.5t-5 -59v-199h663v-952h-149v817h-514v-817h-150v817h-170z" />
<glyph unicode="&#xfb02;" horiz-adv-x="1181" d="M53 817v135h170v230q0 81 15 133t57.5 94.5t114 70.5t188.5 52l29 -135q-86 -18 -135 -35t-76.5 -44t-35 -58t-7.5 -86v-222h256v-135h-256v-817h-150v817h-170zM887 0v1528h149v-1528h-149z" />
<glyph horiz-adv-x="0" />
<glyph horiz-adv-x="682" />
<glyph unicode=" "  horiz-adv-x="503" />
<glyph unicode="&#x09;" horiz-adv-x="503" />
<glyph unicode="&#xa0;" horiz-adv-x="503" />
<glyph unicode="!" horiz-adv-x="579" d="M176 0v225h227v-225h-227zM197 1487h192l-43 -1075h-106z" />
<glyph unicode="&#x22;" horiz-adv-x="831" d="M129 1487h213l-49 -481h-117zM489 1487h216l-50 -481h-116z" />
<glyph unicode="#" horiz-adv-x="1132" d="M61 469v133h205l49 283h-254v133h275l86 510h133l-86 -510h285l84 510h133l-86 -510h186v-133h-209l-47 -283h256v-133h-278l-86 -510h-129l84 510h-285l-84 -510h-133l86 510h-185zM393 596h295l49 295h-295z" />
<glyph unicode="$" horiz-adv-x="1185" d="M109 1120q0 68 11 120.5t39.5 101t74.5 81t119.5 53.5t172.5 25v219h133v-219q204 -5 365 -45l-29 -131q-170 30 -340 37v-539q91 -22 153.5 -43t120.5 -54t91.5 -75t53.5 -103.5t20 -141.5q0 -201 -98.5 -301t-336.5 -113v-252h-133v250q-249 4 -415 45l26 137 q181 -36 393 -43v573q-87 23 -146 42.5t-109.5 45.5t-79.5 54.5t-49.5 69t-28.5 89.5t-8 117zM266 1124q0 -63 8.5 -100.5t37.5 -70t79.5 -54.5t138.5 -45v508q-152 -6 -208 -58t-56 -180zM655 131q160 8 219.5 65t59.5 205q0 121 -55 173.5t-224 95.5v-539z" />
<glyph unicode="%" horiz-adv-x="1718" d="M37 1047q0 109 16 190t44 133.5t71.5 84.5t93.5 45t115 13q83 0 142 -21t105 -71.5t68.5 -142.5t22.5 -227t-23.5 -228t-70 -144.5t-106 -73t-142.5 -21.5q-82 0 -140.5 21t-104.5 71.5t-68.5 143t-22.5 227.5zM180 997q0 -155 49.5 -220.5t147.5 -65.5q99 0 145.5 63 t46.5 219v107q0 156 -48.5 221t-147.5 65q-98 0 -145.5 -63.5t-47.5 -218.5v-107zM537 0l516 1487h131l-516 -1487h-131zM1006 440q0 135 23.5 228t70 144.5t105.5 73t141 21.5q83 0 141.5 -21t104.5 -71.5t68.5 -142.5t22.5 -228q0 -135 -23.5 -228t-70 -144.5t-106 -73 t-142.5 -21.5q-82 0 -140.5 21t-104 71.5t-68 143t-22.5 227.5zM1149 391q0 -155 49.5 -221t147.5 -66q99 0 145.5 63.5t46.5 219.5v107q0 156 -49 221t-148 65q-98 0 -145 -63.5t-47 -218.5v-107z" />
<glyph unicode="&#x26;" horiz-adv-x="1396" d="M88 442q0 98 21 166t68.5 115t113 75t164.5 50q-92 113 -128 188.5t-36 161.5q0 168 93.5 241.5t295.5 73.5q108 0 218.5 -17.5t166.5 -35.5l-29 -133q-64 15 -167.5 30t-188.5 15q-78 0 -125.5 -9t-72 -32.5t-32.5 -53t-8 -79.5q0 -81 53.5 -165.5t233.5 -295.5 q244 -286 244 -288l178 385h147l-231 -496q0 1 71.5 -83.5t143.5 -169.5l72 -85h-180l-175 205q-71 -129 -147 -177t-205 -48q-100 0 -170.5 6.5t-137.5 24t-110.5 49.5t-77 83t-48.5 125t-15 174zM233 438q0 -70 9.5 -121t32.5 -87t52.5 -58t78 -34t101 -16.5t128.5 -4.5 q100 0 154 37t118 159l-366 430q-181 -35 -244.5 -97.5t-63.5 -207.5z" />
<glyph unicode="'" horiz-adv-x="468" d="M129 1487h213l-49 -481h-117z" />
<glyph unicode="(" horiz-adv-x="692" d="M84 641q0 151 6.5 266.5t22.5 206.5t36.5 155t56.5 110.5t74.5 74t98 44t118.5 22.5t144 8v-137q-52 0 -87.5 -2t-75.5 -8.5t-65.5 -18t-53.5 -32t-45 -49.5t-34.5 -70.5t-27 -95.5t-17.5 -124.5t-11 -156.5t-3 -193q0 -106 3 -191.5t11 -156t17.5 -124t27 -95.5 t34.5 -71t45 -50t54 -33t65.5 -18.5t75 -8.5t87.5 -2v-137q-67 1 -117 5t-100.5 14t-86.5 26t-71.5 42t-59 61.5t-46 85.5t-35.5 112.5t-23 144t-14 179t-4 217.5z" />
<glyph unicode=")" horiz-adv-x="692" d="M53 1391v137q85 -2 144 -8t118.5 -22.5t98 -44t74.5 -74t56.5 -110.5t36.5 -155t22.5 -206.5t6.5 -266.5q0 -120 -4 -217.5t-14 -179t-23 -144t-35 -112.5t-46 -85.5t-59.5 -61.5t-71 -42t-86 -26t-100 -14t-116.5 -5v137q52 0 87.5 2t74.5 8.5t65 18.5t53.5 33t44.5 50 t34.5 71t27 95.5t17.5 124t11 156t3 191.5q0 107 -3 193t-11 156.5t-18 124.5t-27.5 95.5t-34.5 70.5t-45 49.5t-53.5 32t-65.5 18t-75 8.5t-87 2z" />
<glyph unicode="*" horiz-adv-x="796" d="M53 995l240 142l-236 135l60 110l229 -149l-6 280h121l-8 -284l231 149l61 -110l-239 -135l237 -136l-61 -110l-231 149l6 -284h-121l8 282l-231 -149z" />
<glyph unicode="+" horiz-adv-x="1038" d="M123 614v134h326v331h143v-331h323v-134h-323v-331h-143v331h-326z" />
<glyph unicode="," horiz-adv-x="495" d="M31 -266l121 504h260l-301 -553z" />
<glyph unicode="-" horiz-adv-x="802" d="M123 475v148h557v-148h-557z" />
<glyph unicode="." horiz-adv-x="495" d="M129 0v238h240v-238h-240z" />
<glyph unicode="/" horiz-adv-x="626" d="M-10 0l512 1487h135l-514 -1487h-133z" />
<glyph unicode="0" horiz-adv-x="1259" d="M84 743q0 224 32.5 373.5t103 237t169.5 123.5t244 36q115 0 199.5 -22t152 -74.5t109 -140t63 -218.5t21.5 -310t-22 -310.5t-64 -220t-110 -142t-153 -76t-200 -22.5q-116 0 -200.5 22t-152 74.5t-108.5 140.5t-62.5 218.5t-21.5 310.5zM242 666q0 -205 43 -325.5 t126.5 -171t221.5 -50.5t220.5 49.5t124.5 169t42 324.5v163q0 205 -43 325.5t-126.5 171t-221.5 50.5t-220.5 -49.5t-124.5 -169t-42 -324.5v-163z" />
<glyph unicode="1" horiz-adv-x="647" d="M55 1348v139h434v-1487h-149v1348h-285z" />
<glyph unicode="2" horiz-adv-x="1120" d="M74 0v125l389 399q217 223 236 244q90 99 114 166q21 63 21 194q0 91 -29 142.5t-102 76.5t-205 25q-205 0 -389 -47l-25 131q78 22 196.5 39.5t221.5 17.5q263 0 375 -90t112 -290q0 -194 -53.5 -288t-253.5 -296q-61 -62 -96 -98l-305 -312h761v-139h-968z" />
<glyph unicode="3" horiz-adv-x="1099" d="M59 1348v139h893v-139l-381 -412q67 -7 149 -28.5t138 -53.5q90 -51 130 -140t40 -227q0 -142 -37.5 -235t-126.5 -143q-213 -120 -749 -132l-11 136q539 26 680 114q88 54 88 256q0 192 -88 248q-116 72 -381 86v125l373 406h-717z" />
<glyph unicode="4" horiz-adv-x="1183" d="M41 365v159l582 973h159l-594 -993h609v450h151v-450h182v-139h-182v-365h-151v365h-756z" />
<glyph unicode="5" horiz-adv-x="1097" d="M88 856l21 631h839v-139h-698l-12 -365q440 -16 626 -121q89 -51 126.5 -142.5t37.5 -232.5q0 -292 -164 -387q-193 -111 -751 -123l-11 136q290 14 451.5 38t230.5 68q88 54 88 264q0 204 -88 258q-77 49 -234.5 77t-461.5 38z" />
<glyph unicode="6" horiz-adv-x="1189" d="M86 510v326q0 182 24 286t89 172q83 88 261.5 138.5t491.5 80.5l17 -133q-294 -32 -443 -71.5t-213 -102.5q-15 -14 -26 -33.5t-18.5 -35.5t-13 -44t-8 -43t-4 -49.5t-1.5 -45.5v-49v-44q253 66 432 66q239 0 346.5 -99.5t107.5 -328.5q0 -74 -4.5 -129.5t-18.5 -112.5 t-37.5 -97.5t-63 -77t-94 -58.5t-131.5 -35t-175 -13q-130 0 -222.5 24t-150 66t-90 111.5t-44 146.5t-11.5 185zM242 500q0 -116 19 -189t64.5 -116.5t111.5 -59.5t171 -16q78 0 131.5 6.5t96 23.5t67.5 43.5t41.5 71t22.5 100t6 136.5q0 157 -68 220.5t-237 63.5 q-179 0 -426 -63v-221z" />
<glyph unicode="7" horiz-adv-x="1081" d="M39 1348v139h1003v-133l-571 -1354h-168l580 1348h-844z" />
<glyph unicode="8" horiz-adv-x="1239" d="M72 348q0 78 4 128t20 94t34.5 69.5t62 55t88 50t125.5 54.5q-164 70 -217.5 145.5t-53.5 229.5q0 77 24.5 136.5t66.5 97t104.5 62t131.5 34t154 9.5q88 0 159 -9.5t134.5 -33.5t106 -62t67.5 -97.5t25 -136.5q0 -62 -4 -104.5t-16.5 -79.5t-30 -61t-51.5 -49t-74 -44 t-103 -45q73 -28 119.5 -49t88.5 -49t65 -57t40 -71.5t23 -94t6 -122.5q0 -86 -25.5 -150.5t-71.5 -106t-117 -66.5t-153 -35t-190 -10q-109 0 -190 10t-149.5 35t-112 66.5t-67 105.5t-23.5 151zM227 348q0 -67 25 -112t77 -70t120 -35t165 -10q98 0 167.5 10t124.5 35 t82.5 70t27.5 112q0 48 -3 82t-14 65.5t-23 52.5t-41 43t-55 36t-78.5 34t-99 35t-127.5 39l-20 6q-67 -27 -103.5 -42t-77.5 -36t-59 -33.5t-39 -36t-27.5 -41.5t-13 -52.5t-7.5 -66.5t-1 -85zM291 1174q0 -119 44 -172q41 -48 162 -94q40 -15 146 -50l31 -10 q46 19 75.5 31t59.5 27.5t47.5 23.5t35 24t26 24t16.5 27.5t10.5 30t5 38t2.5 44v54.5v2q0 111 -83.5 154.5t-254.5 43.5q-165 0 -244 -43t-79 -155z" />
<glyph unicode="9" horiz-adv-x="1189" d="M61 991q0 64 3.5 113.5t13 101t27.5 90t45 75t66.5 61.5t92 44t122 28t155.5 9q109 0 191 -15.5t139 -48.5t94 -75.5t57.5 -105.5t28.5 -130t8 -157v-326q0 -182 -24 -286t-89 -172q-83 -88 -262 -139t-491 -81l-17 134q294 32 443 71.5t213 102.5q15 14 26 33.5 t18.5 35.5t13 44t8 43t4 49.5t1.5 45.5v49v44q-253 -66 -432 -66q-239 0 -347 99.5t-108 328.5zM217 991q0 -157 68 -220.5t237 -63.5q179 0 426 63v221q0 116 -19 189t-64.5 116.5t-111.5 59.5t-171 16q-78 0 -131.5 -6.5t-96 -23.5t-67.5 -43.5t-41.5 -71t-22.5 -100 t-6 -136.5z" />
<glyph unicode=":" horiz-adv-x="495" d="M129 0v238h240v-238h-240zM129 717v235h240v-235h-240z" />
<glyph unicode=";" horiz-adv-x="495" d="M31 -266l121 504h260l-301 -553zM129 717v235h240v-235h-240z" />
<glyph unicode="&#x3c;" horiz-adv-x="753" d="M66 664l393 415h178l-395 -415l395 -416h-178z" />
<glyph unicode="=" horiz-adv-x="942" d="M123 434v131h696v-131h-696zM123 795v131h696v-131h-696z" />
<glyph unicode="&#x3e;" horiz-adv-x="753" d="M117 248l395 416l-395 415h178l393 -415l-393 -416h-178z" />
<glyph unicode="?" horiz-adv-x="1054" d="M66 1456q73 22 196 39.5t244 17.5q280 0 397 -83.5t117 -284.5q0 -77 -13 -132.5t-42.5 -104.5t-86 -91t-135.5 -82t-200 -88v-235h-150v321q111 42 178 69.5t126 59t88.5 56.5t51 60.5t27.5 72t6 90.5q0 129 -80 180t-284 51q-197 0 -412 -45zM350 0v225h228v-225h-228z " />
<glyph unicode="@" horiz-adv-x="1959" d="M106 504q0 179 21 313.5t67.5 234t114 165t168.5 105.5t221.5 56.5t282.5 16.5q240 0 401.5 -40t270.5 -135.5t157 -250t48 -385.5q0 -127 -15.5 -219t-54 -157.5t-89.5 -105.5t-135 -63t-177 -31t-228 -8l-31 111q-198 -127 -368 -127q-45 0 -80 7.5t-70.5 26.5 t-58 56.5t-36.5 93t-10.5 141t23.5 195.5q17 93 38 166t42 122t47.5 83.5t49 53.5t52.5 29t52 12.5t53 2.5q91 0 215 -30.5t199 -59.5l51 69h100l-151 -817q91 0 153 6.5t115 25.5t84.5 50t54 82t31 120t8.5 167q0 138 -18 241.5t-59 178.5t-98 124t-143.5 78t-186.5 40.5 t-236 11.5q-103 0 -181 -5.5t-153 -20t-128.5 -40t-102 -65.5t-79.5 -96t-54 -132t-33 -174t-10 -221t10 -221t33 -174t54 -132t79.5 -96t102 -65.5t128.5 -40t153 -20t181 -5.5h201v-135h-201q-163 0 -283.5 16t-221.5 55.5t-168 104.5t-114 164.5t-67.5 233.5t-20.5 313z M653 274.5q3 -85.5 38 -119.5t116 -34q80 0 176.5 40t167.5 97l92 498q-66 27 -171 53.5t-181 26.5q-79 0 -127 -68.5t-84 -261.5q-30 -146 -27 -231.5z" />
<glyph unicode="A" horiz-adv-x="1353" d="M39 0l571 1497h133l572 -1497h-154l-137 360h-700l-138 -360h-147zM377 498h594l-297 780z" />
<glyph unicode="B" horiz-adv-x="1288" d="M156 0v1487h544q113 0 193 -18.5t141 -62.5t91 -124t30 -197q0 -269 -209 -311q121 -19 184.5 -111.5t63.5 -248.5q0 -216 -116 -315t-339 -99h-583zM303 137h436q52 0 93.5 6.5t82.5 25t68 48.5t44 80t17 117t-17 116.5t-44 79.5t-68 48.5t-82.5 25t-93.5 6.5h-436v-553 zM303 823h397q53 0 93.5 5t82.5 21.5t69 44.5t44 76.5t17 114.5t-17 115t-44.5 77.5t-69 45t-82.5 22t-93 5.5h-397v-527z" />
<glyph unicode="C" horiz-adv-x="1187" d="M86 743q0 113 10.5 207.5t28.5 167t46 130.5t60 99t74 71t84 48t94.5 29t100 14.5t106.5 3.5q131 0 242 -17t168 -36l-33 -133q-203 45 -381 45q-92 0 -158 -15t-122 -52.5t-89.5 -102.5t-52 -165t-18.5 -240v-99q0 -136 19 -236t54 -166t91 -105.5t123.5 -55.5 t158.5 -16q104 0 217.5 17t159.5 30l33 -133q-166 -56 -414 -56q-59 0 -106.5 3.5t-100 14t-94 28t-83.5 47.5t-73.5 70.5t-60 98.5t-46 130t-28 166.5t-10.5 207.5z" />
<glyph unicode="D" horiz-adv-x="1333" d="M156 0v1487h485q119 0 208 -19t166.5 -68.5t126.5 -132.5t77 -214t28 -310q0 -128 -14 -231.5t-40 -180.5t-66.5 -134.5t-89 -95t-112.5 -60t-132 -32t-152 -9.5h-485zM305 137h334q85 0 150 14t123 51.5t95 99.5t58.5 160.5t21.5 231.5v99q0 134 -21.5 232.5 t-58.5 160.5t-95 99t-123 51t-150 14h-334v-1213z" />
<glyph unicode="E" horiz-adv-x="1114" d="M156 0v1487h872v-139h-723v-492h553v-139h-553v-578h723v-139h-872z" />
<glyph unicode="F" horiz-adv-x="1075" d="M156 0v1487h874v-139h-725v-594h537v-140h-537v-614h-149z" />
<glyph unicode="G" horiz-adv-x="1282" d="M86 743q0 113 10.5 207.5t28.5 167t47 130.5t61 99t76 71t87 48t98 29t105 14.5t112 3.5q131 0 247 -17t172 -36l-32 -133q-202 45 -391 45q-99 0 -169 -15t-128 -52.5t-92.5 -102.5t-53 -165t-18.5 -240v-99q0 -136 19 -236t54 -166t91 -105.5t123.5 -55.5t158.5 -16 q174 0 322 35v540h147v-649q-213 -68 -473 -68q-59 0 -106.5 3.5t-100 14t-94 28t-83.5 47.5t-73.5 70.5t-60 98.5t-46 130t-28 166.5t-10.5 207.5z" />
<glyph unicode="H" horiz-adv-x="1443" d="M156 0v1487h149v-621h834v621h149v-1487h-149v727h-834v-727h-149z" />
<glyph unicode="I" horiz-adv-x="495" d="M174 0v1487h152v-1487h-152z" />
<glyph unicode="J" horiz-adv-x="991" d="M45 31l23 137q253 -37 346 -37q52 0 92 5t70.5 18t52 28.5t36.5 43.5t23.5 55.5t13 72.5t6 85.5t1.5 103.5v944h149v-965q0 -99 -8 -172.5t-27.5 -135t-52 -102.5t-82.5 -69t-117 -40.5t-157 -12.5q-190 0 -369 41z" />
<glyph unicode="K" horiz-adv-x="1308" d="M156 0v1487h149v-723l729 723h183l-568 -563l588 -924h-176q-518 815 -520 815q0 1 -77.5 -75.5t-158.5 -157.5v-582h-149z" />
<glyph unicode="L" horiz-adv-x="1142" d="M135 0v1487h150v-1348h813v-139h-963z" />
<glyph unicode="M" horiz-adv-x="1726" d="M156 0v1487h131l575 -1288l578 1288h131v-1487h-150v1118l-497 -1118h-129l-498 1118v-1118h-141z" />
<glyph unicode="N" horiz-adv-x="1411" d="M156 0v1487h141l815 -1221v1221h143v-1487h-135l-821 1229v-1229h-143z" />
<glyph unicode="O" horiz-adv-x="1421" d="M86 743q0 184 33 322t87.5 222.5t137 136t170.5 70.5t199 19t198.5 -18.5t169.5 -69.5t135.5 -134.5t86 -221t32.5 -321.5t-32.5 -322t-87.5 -222.5t-137 -136.5t-170 -71t-199 -19t-198.5 18.5t-169.5 69.5t-136 135t-86.5 221.5t-32.5 321.5zM246 698 q0 -116 15.5 -207.5t46 -154t70.5 -106t94.5 -67.5t112 -34t128.5 -10q87 0 152.5 14t126.5 52t99.5 101t61.5 166t23 242v99q0 116 -15.5 207.5t-46 154t-70.5 106t-94.5 67.5t-112 34t-128.5 10q-87 0 -152.5 -14t-126.5 -52t-99.5 -101t-61.5 -166t-23 -242v-99z" />
<glyph unicode="P" horiz-adv-x="1259" d="M156 0v1487h536q260 0 381 -109t121 -356t-123.5 -358t-382.5 -111h-383v-553h-149zM305 690h387q70 0 117.5 6t95.5 25.5t76 54.5t45.5 95.5t17.5 146.5t-18 147t-47 96.5t-77 56t-96.5 26.5t-117.5 6h-383v-660z" />
<glyph unicode="Q" horiz-adv-x="1421" d="M86 743q0 184 33 322t87.5 222.5t137 136t170.5 70.5t199 19t198.5 -18.5t169.5 -69.5t135.5 -134.5t86 -221t32.5 -321.5q0 -292 -76.5 -460t-218.5 -241l185 -336h-164l-160 289q-76 -18 -192 -18q-78 0 -143.5 9t-131 32t-116.5 60t-95.5 96t-74 137t-46 186 t-16.5 241zM246 698q0 -116 15.5 -207.5t46 -154t70.5 -106t94.5 -67.5t112 -34t128.5 -10q69 0 118 8l-172 313h168l146 -268q99 57 151 181.5t52 340.5v99q0 116 -15.5 207.5t-46 154t-70.5 106t-94.5 67.5t-112 34t-128.5 10q-87 0 -152.5 -14t-126.5 -52t-99.5 -101 t-61.5 -166t-23 -242v-99z" />
<glyph unicode="R" horiz-adv-x="1312" d="M156 0v1487h516q262 0 382 -104.5t120 -350.5q0 -197 -79 -302.5t-235 -137.5l377 -592h-176l-365 573h-391v-573h-149zM305 709h367q59 0 99.5 3.5t84 14t71.5 32t51.5 56t34.5 88t11 125.5t-11.5 125.5t-35.5 88.5t-52.5 57t-72.5 33t-85 14.5t-99 3.5h-363v-641z" />
<glyph unicode="S" horiz-adv-x="1193" d="M102 57l27 136q248 -62 434 -62q99 0 161.5 10t110.5 39t68.5 82.5t20.5 138.5q0 38 -3 66.5t-12.5 52.5t-19.5 41t-32 32.5t-42.5 26t-58 22.5t-71 20.5t-89.5 21.5q-100 24 -165 43t-122.5 45.5t-90 55.5t-56.5 72t-32.5 95t-8.5 125q0 197 124 290t365 93 q127 0 242.5 -16t171.5 -31l-27 -135q-50 12 -168 26.5t-223 14.5q-170 0 -248.5 -52t-78.5 -186q0 -51 6 -86.5t24 -64.5t40.5 -47.5t66.5 -36.5t89.5 -30t121.5 -30q57 -14 91.5 -22.5t80.5 -23t73.5 -27t61.5 -31.5t53.5 -39.5t40 -49t31 -62t17.5 -76t7 -92.5 q0 -121 -34.5 -203.5t-104.5 -128.5t-162 -65t-221 -19q-121 0 -258 21.5t-201 45.5z" />
<glyph unicode="T" horiz-adv-x="1230" d="M45 1348v139h1141v-139h-494v-1348h-149v1348h-498z" />
<glyph unicode="U" horiz-adv-x="1406" d="M135 528v959h152v-942q0 -123 21 -202t71.5 -128.5t129 -69.5t200.5 -20q123 0 200 18t128 66t71 126.5t20 205.5v946h146v-955q0 -110 -16 -194.5t-49.5 -145t-79.5 -102t-112 -65.5t-140.5 -34.5t-171.5 -10.5q-117 0 -202 14t-157.5 50t-117 97t-69 157.5t-24.5 229.5 z" />
<glyph unicode="V" horiz-adv-x="1353" d="M39 1487h154l487 -1278l487 1278h148l-572 -1497h-133z" />
<glyph unicode="W" horiz-adv-x="1871" d="M39 1487h154l329 -1190l352 1190h130l329 -1190l353 1190h147l-442 -1497h-121l-336 1210l-359 -1210h-120z" />
<glyph unicode="X" horiz-adv-x="1372" d="M80 0l512 780l-469 707h172l391 -590l389 590h166l-469 -715l512 -772h-172l-436 655l-430 -655h-166z" />
<glyph unicode="Y" horiz-adv-x="1335" d="M39 1487h166l467 -746l469 746h155l-555 -883v-604h-149v604z" />
<glyph unicode="Z" horiz-adv-x="1181" d="M59 0v117l856 1231h-837v139h1018v-129l-848 -1219h858v-139h-1047z" />
<glyph unicode="[" horiz-adv-x="573" d="M129 -246v1774h395v-137h-258v-1500h258v-137h-395z" />
<glyph unicode="\" horiz-adv-x="626" d="M-10 1487h135l512 -1487h-133z" />
<glyph unicode="]" horiz-adv-x="573" d="M55 -109h256v1500h-256v137h394v-1774h-394v137z" />
<glyph unicode="^" horiz-adv-x="802" d="M123 618v148h557v-148h-557z" />
<glyph unicode="_" horiz-adv-x="921" d="M-72 -113h1069v-135h-1069v135z" />
<glyph unicode="`" horiz-adv-x="919" d="M139 1446h258l176 -348h-94z" />
<glyph unicode="a" horiz-adv-x="1001" d="M84 270q0 98 22.5 158.5t77.5 87.5q85 40 197.5 51t339.5 11v49q0 66 -7 105.5t-28.5 69.5t-61.5 42t-106 12q-164 0 -309 -37l-29 131q184 41 342 41q190 0 269 -76t79 -264v-651h-108l-31 102q-33 -21 -80 -44t-137 -47.5t-174 -24.5q-256 0 -256 284zM236 262 q0 -84 34.5 -113.5t110.5 -29.5q82 0 182 35t158 73v230q-200 0 -296.5 -10t-139.5 -33q-49 -27 -49 -152z" />
<glyph unicode="b" horiz-adv-x="1087" d="M135 0v1528h150v-668q61 35 178 75t219 40q36 0 62 -2.5t61 -14t60 -31t51 -56.5t42 -88t26.5 -128t10.5 -174t-11 -174.5t-28 -128.5t-44 -88.5t-53 -57.5t-61 -31t-62 -14t-62 -3q-108 0 -220.5 30.5t-177.5 61.5l-43 -76h-98zM285 203q54 -26 162 -54t188 -28 q59 0 95 14t63 52.5t38 108.5t11 181q0 148 -21.5 226.5t-63.5 106.5t-120 28q-79 0 -184 -35t-168 -72v-528z" />
<glyph unicode="c" horiz-adv-x="905" d="M72 483q0 269 109.5 388.5t336.5 119.5q70 0 156.5 -12.5t140.5 -26.5l-29 -131q-157 35 -274 35q-58 0 -98.5 -7.5t-78.5 -30.5t-60.5 -63t-36 -107t-13.5 -161t13.5 -161.5t37 -109t61.5 -65t79.5 -32t99.5 -8.5q65 0 143.5 11t128.5 25l31 -129q-153 -43 -307 -43 q-226 0 -333 119t-107 389z" />
<glyph unicode="d" horiz-adv-x="1087" d="M92 477q0 97 11 174.5t28 129t44.5 88.5t53 57t61 31.5t62.5 14.5t62 3q75 0 162.5 -18.5t138 -35.5t88.5 -34v641h149v-1528h-108l-31 102q-66 -38 -181 -78t-226 -40q-36 0 -62 2.5t-61 13.5t-60 30.5t-51.5 56.5t-42.5 88t-26.5 128t-10.5 174zM246 481 q0 -148 21.5 -226t63.5 -106t120 -28q81 0 185 34.5t167 71.5v529q-54 26 -162 54t-188 28q-58 0 -94.5 -14t-63.5 -53t-38 -109t-11 -181z" />
<glyph unicode="e" d="M72 483q0 138 30.5 238.5t86.5 159.5t129.5 86.5t166.5 27.5q205 0 300.5 -102t95.5 -348v-78h-658q1 -88 15.5 -151.5t38 -103t61 -62.5t79.5 -31t99 -8q75 0 162.5 9.5t134.5 22.5l27 -129q-50 -14 -145.5 -26.5t-182.5 -12.5q-226 0 -333 119t-107 389zM229 586h496 q0 158 -56.5 217t-189.5 59q-108 0 -172 -60t-78 -216z" />
<glyph unicode="f" horiz-adv-x="679" d="M53 817v135h170v230q0 65 9 109t32.5 82t69 65t113.5 50t171 44l29 -135q-65 -14 -108 -25.5t-75 -26.5t-49 -28.5t-27 -36.5t-12.5 -46t-2.5 -60v-222h256v-135h-256v-817h-150v817h-170z" />
<glyph unicode="g" horiz-adv-x="1087" d="M92 477q0 97 11 174.5t28 129t44.5 88.5t53.5 57t61.5 31.5t62.5 14.5t63 3q103 0 225 -37.5t172 -71.5l43 86h96v-854q0 -110 -7 -186t-27.5 -136.5t-51 -96t-83 -59t-119 -32t-162.5 -8.5q-179 0 -316 27l19 133q151 -23 289 -23q55 0 88.5 1.5t69.5 7.5t55.5 16 t39.5 29.5t29 45t16.5 66t10 89t2.5 116.5v29q-52 -43 -172.5 -88t-226.5 -45q-36 0 -62 2.5t-61 13.5t-59.5 30.5t-51 56.5t-43 88t-27 128t-10.5 174zM246 481q0 -147 22 -225.5t64.5 -106.5t120.5 -28q81 0 189 42.5t163 86.5v485q-41 31 -155.5 67t-194.5 36 q-59 0 -95.5 -14t-63.5 -53t-38.5 -109t-11.5 -181z" />
<glyph unicode="h" horiz-adv-x="1081" d="M135 0v1528h148v-690q53 46 178.5 91.5t218.5 45.5q135 0 202.5 -64t67.5 -202v-709h-149v670q0 93 -33 130.5t-127 37.5q-77 0 -182 -37.5t-174 -89.5v-711h-150z" />
<glyph unicode="i" horiz-adv-x="440" d="M141 1192v213h158v-213h-158zM145 0v952h150v-952h-150z" />
<glyph unicode="j" horiz-adv-x="440" d="M-131 -272q97 20 149.5 37t82.5 44t37 56.5t7 85.5v1001h150v-1009q0 -82 -14 -132.5t-58 -93t-120 -70.5t-205 -55zM141 1192v213h158v-213h-158z" />
<glyph unicode="k" horiz-adv-x="983" d="M135 0v1528h150v-1049l446 473h172l-364 -379l401 -573h-170l-330 471l-155 -162v-309h-150z" />
<glyph unicode="l" horiz-adv-x="440" d="M145 0v1528h150v-1528h-150z" />
<glyph unicode="m" horiz-adv-x="1708" d="M135 0v952h111l28 -116q76 55 190 97t208 42q193 0 241 -146q87 59 197 102.5t207 43.5q133 0 195.5 -63t62.5 -203v-709h-148v670q0 95 -28.5 131.5t-120.5 36.5q-73 0 -172.5 -36t-175.5 -91v-711h-148v670q0 95 -29 131.5t-120 36.5q-77 0 -177.5 -37t-170.5 -90v-711 h-150z" />
<glyph unicode="n" horiz-adv-x="1081" d="M135 0v952h109l30 -96q65 37 182.5 78t223.5 41q134 0 202 -64.5t68 -201.5v-709h-149v670q0 93 -33 130.5t-127 37.5q-79 0 -186.5 -35.5t-169.5 -71.5v-731h-150z" />
<glyph unicode="o" horiz-adv-x="1064" d="M72 483q0 266 118 389t345 123q228 0 343 -120.5t115 -387.5t-117.5 -389.5t-345.5 -122.5q-227 0 -342.5 121t-115.5 387zM225 487q0 -93 16.5 -161.5t43 -109t68 -65t84 -32.5t98.5 -8t98 8t83 31.5t66.5 63.5t41.5 108t16 161t-16 161.5t-43 109.5t-68 65t-84 32.5 t-99 8.5t-97.5 -8t-82.5 -31.5t-67 -64t-42 -108.5t-16 -161z" />
<glyph unicode="p" horiz-adv-x="1087" d="M135 -410v1362h109l30 -96q37 21 90.5 44.5t146.5 49t171 25.5q36 0 62 -2.5t61 -14t60 -31t51 -56.5t42 -88t26.5 -128t10.5 -174t-11 -174.5t-28 -128.5t-44 -88.5t-53 -57.5t-61 -31t-62 -14t-62 -3q-75 0 -162.5 18.5t-138 35.5t-88.5 34v-482h-150zM285 203 q54 -26 162 -54t188 -28q59 0 95 14t63 52.5t38 108.5t11 181q0 148 -21.5 226.5t-63.5 106.5t-120 28q-81 0 -184.5 -35t-167.5 -72v-528z" />
<glyph unicode="q" horiz-adv-x="1077" d="M82 477q0 97 11 174.5t28 129t44 88.5t53 57t61 31.5t62 14.5t62 3q108 0 220.5 -30.5t177.5 -61.5l43 92h98v-1385h-149v508q-60 -34 -178 -74t-220 -40q-36 0 -62 2.5t-61 13.5t-60 30.5t-51 56.5t-42 88t-26.5 128t-10.5 174zM236 481q0 -148 21.5 -226t63 -106 t119.5 -28q79 0 185 35t168 71v529q-54 25 -162.5 53.5t-188.5 28.5q-78 0 -120 -27t-64 -105t-22 -225z" />
<glyph unicode="r" horiz-adv-x="706" d="M135 0v952h109l30 -112q189 112 361 135l20 -137q-91 -13 -195.5 -46.5t-174.5 -76.5v-715h-150z" />
<glyph unicode="s" horiz-adv-x="950" d="M98 33l27 129q48 -15 149.5 -32t178.5 -17q108 0 162.5 15t76 49.5t21.5 103.5t-41.5 95t-165.5 44q-73 10 -117 17.5t-91 19t-72.5 25t-49.5 33t-35 47t-17.5 62.5t-6.5 83q0 149 93 213.5t288 64.5q93 0 190.5 -11t136.5 -22l-26 -129q-41 9 -139.5 19t-165.5 10 q-129 0 -177.5 -31t-48.5 -110q0 -29 3.5 -47.5t15.5 -34t27.5 -24.5t48.5 -17.5t68.5 -14t96.5 -12.5q194 -24 266 -81t72 -195q0 -95 -25 -156t-81 -93.5t-126.5 -44t-180.5 -11.5q-91 0 -196 16.5t-159 36.5z" />
<glyph unicode="t" horiz-adv-x="714" d="M41 817v135h170v336l147 41v-377h258v-135h-258v-543q0 -83 18.5 -113t59.5 -30q73 0 178 14l13 -139q-125 -16 -215 -16q-201 0 -201 264v563h-170z" />
<glyph unicode="u" horiz-adv-x="1075" d="M131 248v704h150v-665q0 -93 32.5 -130.5t126.5 -37.5q79 0 184.5 33.5t166.5 68.5v731h149v-952h-109l-30 96q-62 -35 -177.5 -74.5t-222.5 -39.5q-134 0 -202 64.5t-68 201.5z" />
<glyph unicode="v" d="M39 952h162l291 -798l290 798h148l-367 -960h-157z" />
<glyph unicode="w" horiz-adv-x="1474" d="M39 952h156l223 -743l256 743h137l254 -743l225 743h146l-301 -960h-144l-256 749l-254 -749h-141z" />
<glyph unicode="x" horiz-adv-x="978" d="M59 0l342 492l-319 460h170l248 -354l239 354h156l-320 -465l340 -487h-170l-268 387l-262 -387h-156z" />
<glyph unicode="y" d="M39 952h162q297 -762 297 -764l288 764h144l-520 -1362h-150q10 26 26.5 69.5t51.5 135t58.5 152t23.5 59.5z" />
<glyph unicode="z" horiz-adv-x="884" d="M53 0v113l576 710h-549v129h727v-112l-571 -711h598v-129h-781z" />
<glyph unicode="{" horiz-adv-x="813" d="M14 584v137h191q1 109 6.5 198t16.5 163t24.5 131t36 102t46.5 77.5t59.5 56t71 38t85 23.5t98 13t113.5 5l-2 -137q-52 0 -87 -2t-74.5 -8.5t-65 -18t-53.5 -32t-45 -49.5t-34.5 -70.5t-27 -95.5t-17.5 -124.5t-11 -156.5t-3 -193q0 -106 3 -191.5t11 -156t17.5 -124 t27 -95.5t34.5 -71t44.5 -50t53.5 -33t65 -18.5t74.5 -8.5t87.5 -2v-137q-65 1 -113.5 5t-98 13t-85 24t-70.5 39.5t-59 58t-46 80t-36 105t-25 134.5t-16 167.5t-6 203.5h-191z" />
<glyph unicode="|" horiz-adv-x="632" d="M256 -410v2028h121v-2028h-121z" />
<glyph unicode="}" horiz-adv-x="813" d="M51 -246l2 137q52 0 87 2t74.5 8.5t65 18t53.5 32t45 49.5t34.5 70.5t27 95.5t17.5 124.5t11 156.5t3 193q0 106 -3 191.5t-11 156t-17.5 124t-27 95.5t-34.5 71t-44.5 50t-53.5 33t-65 18.5t-74.5 8.5t-87.5 2v137q65 -1 113.5 -5t98 -13t85 -24t70.5 -39.5t59 -58 t46 -80t36 -105t25 -134.5t16 -167.5t6 -203.5h191v-137h-191q-1 -109 -6.5 -198t-16.5 -163t-24.5 -131t-36 -102t-46.5 -77.5t-59.5 -56t-71 -38t-85 -23.5t-98 -13t-113.5 -5z" />
<glyph unicode="~" horiz-adv-x="921" d="M119 1192q106 86 147.5 111.5t91.5 25.5q32 0 75.5 -23.5t80 -47t49.5 -23.5q7 0 13.5 2t15.5 7t16.5 9.5t21 15.5t23 18.5t29 24t33.5 27.5l88 -102q-13 -10 -35.5 -29t-31.5 -26.5t-26.5 -21t-24.5 -18.5t-20.5 -14t-20.5 -12t-18.5 -8t-20.5 -6t-20.5 -2.5t-23.5 -1.5 q-32 0 -75 23.5t-79.5 47t-50.5 23.5q-5 0 -10 -1t-11 -4t-11.5 -6t-13.5 -9t-14.5 -10.5t-18 -14t-20 -16.5t-24 -19.5t-26.5 -21.5z" />
<glyph unicode="&#xa1;" horiz-adv-x="579" d="M176 1262v225h227v-225h-227zM190 0l43 1075h107l43 -1075h-193z" />
<glyph unicode="&#xa2;" horiz-adv-x="882" d="M72 743q0 245 90 365t278 139v240h135v-238q139 -9 240 -37l-29 -131q-108 25 -215 33v-741q123 9 217 35l31 -129q-120 -33 -244 -41v-238h-135v238q-189 19 -278.5 138.5t-89.5 366.5zM225 748q0 -101 14.5 -171t44 -112t68 -62.5t92.5 -27.5v737q-54 -6 -92.5 -24.5 t-68 -59t-44 -110t-14.5 -170.5z" />
<glyph unicode="&#xa3;" horiz-adv-x="1146" d="M51 0v139h324q-89 442 -109 557h-215v138h195q-35 196 -35 296q0 190 101 286.5t331 96.5q100 0 213.5 -16t194.5 -39l-33 -133q-181 47 -375 47q-159 0 -220 -57t-61 -182q0 -91 31 -299h420v-138h-397q11 -64 110 -557h555v-139h-1030z" />
<glyph unicode="&#xa4;" horiz-adv-x="1245" d="M41 485v136h205q0 24 -1 72t-1 88t2 75h-205v135h217q19 152 65 257t115 161.5t147 80t177 23.5q126 0 234.5 -18t162.5 -39l-31 -129q-176 45 -370 45q-153 0 -238 -89t-108 -292h477v-135h-488v-235h488v-136h-473q26 -192 110 -279t236 -87q205 0 366 45l31 -129 q-170 -58 -401 -58q-79 0 -142.5 13.5t-124 48t-105 91t-77.5 146t-49 209.5h-219z" />
<glyph unicode="&#xa5;" horiz-adv-x="1335" d="M39 1487h170l467 -752l467 752h153l-372 -592h305v-133h-389l-99 -158v-82h488v-133h-488v-389h-149v389h-488v133h488v82l-98 158h-390v133h306z" />
<glyph unicode="&#xa6;" horiz-adv-x="632" d="M256 -410v873h121v-873h-121zM256 745v873h121v-873h-121z" />
<glyph unicode="&#xa7;" horiz-adv-x="1105" d="M96 711q0 142 109 286q-68 68 -68 222q0 145 94 216.5t308 71.5q115 0 229 -16t156 -31l-31 -123q-53 12 -161 24.5t-193 12.5q-105 0 -159.5 -15.5t-74.5 -47.5t-20 -92q0 -104 44 -128t239 -42q33 -3 50 -5q222 -20 309 -77t87 -183q0 -135 -109 -288q66 -63 66 -220 q0 -146 -93.5 -217t-308.5 -71q-114 0 -229.5 11.5t-155.5 23.5l23 129q48 -9 159.5 -20t202.5 -11q106 0 161 15.5t75 47.5t20 92q0 104 -44.5 128t-241.5 42q-32 3 -50 5q-220 20 -306.5 77t-86.5 183zM238 745q0 -76 55.5 -105t230.5 -46q186 -16 273 -41q75 110 75 197 q0 76 -56 105t-230 46q-190 16 -273 41q-75 -105 -75 -197z" />
<glyph unicode="&#xa8;" horiz-adv-x="921" d="M158 1118v217h213v-217h-213zM549 1118v217h215v-217h-215z" />
<glyph unicode="&#xa9;" horiz-adv-x="1691" d="M106 745q0 154 19 270.5t59.5 202t99 143t144 92t185.5 49t233 14.5t233 -14.5t185.5 -49t143.5 -91.5t99 -143t59.5 -202.5t18.5 -270.5q0 -184 -28.5 -316t-83.5 -220t-146.5 -139.5t-206 -73t-274.5 -21.5q-133 0 -233 14.5t-185.5 49t-143.5 91.5t-99 142.5t-60 202 t-19 270.5zM236 748q0 -104 8 -187t27 -147.5t44.5 -112.5t65 -82t83.5 -56t105.5 -34.5t126 -17.5t150.5 -5q98 0 169.5 6.5t138.5 23.5t112.5 48t83.5 78.5t59.5 115.5t33 159.5t11.5 210.5q0 104 -8 186.5t-27 147t-44 111.5t-64.5 81t-83 55t-105.5 33.5t-126 17 t-150 4.5t-150 -4.5t-126.5 -17t-106 -33.5t-83.5 -55t-65 -81t-44 -111.5t-27 -147t-8 -186.5zM471 743q0 91 11 163.5t29 122.5t47 86.5t60 57.5t72.5 33.5t79 16.5t86.5 4q138 0 277 -39l-37 -115q-7 1 -41 7t-40 7t-31.5 5t-35 4.5t-29 2.5t-34.5 2.5t-33 0.5 q-64 0 -107 -14.5t-75 -50.5t-47 -100t-15 -161v-59q0 -185 59.5 -256.5t188.5 -71.5q84 0 246 31l33 -117q-131 -39 -283 -39q-48 0 -85 3.5t-78.5 16t-72 33t-59 56.5t-46.5 86t-29 121.5t-11 162.5z" />
<glyph unicode="&#xaa;" horiz-adv-x="815" d="M76 922q0 79 13.5 124.5t57.5 73.5q54 35 155 48.5t286 13.5q0 6 1 18.5t1 18.5q0 98 -29.5 135t-124.5 37q-72 0 -150 -8t-116 -19l-27 115q116 34 283 34q81 0 134 -10.5t93.5 -38.5t59 -79t18.5 -130v-542l-106 -2l-25 71q-116 -46 -183.5 -65t-123.5 -19 q-42 0 -77 9.5t-68.5 33t-52.5 69.5t-19 112zM82 465v135h649v-135h-649zM213 915q0 -55 26.5 -74.5t86.5 -19.5q101 0 266 84v166q-155 0 -232.5 -8.5t-111.5 -28.5q-24 -14 -29.5 -38.5t-5.5 -80.5z" />
<glyph unicode="&#xab;" horiz-adv-x="1019" d="M102 469l246 422h146l-226 -422l226 -418h-146zM496 469l245 422h146l-225 -422l225 -418h-146z" />
<glyph unicode="&#xac;" horiz-adv-x="1282" d="M86 743q0 113 10.5 207.5t28.5 167t47 130.5t61 99t76 71t87 48t98 29t105 14.5t112 3.5q131 0 247 -17t172 -36l-32 -133q-202 45 -391 45q-99 0 -169 -15t-128 -52.5t-92.5 -102.5t-53 -165t-18.5 -240v-99q0 -136 19 -236t54 -166t91 -105.5t123.5 -55.5t158.5 -16 q174 0 322 35v440h-299v139h446v-688q-213 -68 -473 -68q-59 0 -106.5 3.5t-100 14t-94 28t-83.5 47.5t-73.5 70.5t-60 98.5t-46 130t-28 166.5t-10.5 207.5z" />
<glyph unicode="&#xad;" horiz-adv-x="802" d="M123 475v148h557v-148h-557z" />
<glyph unicode="&#xae;" horiz-adv-x="1691" d="M106 745q0 154 19 270.5t59.5 202t99 143t144 92t185.5 49t233 14.5t233 -14.5t185.5 -49t143.5 -91.5t99 -143t59.5 -202.5t18.5 -270.5q0 -184 -28.5 -316t-83.5 -220t-146.5 -139.5t-206 -73t-274.5 -21.5q-133 0 -233 14.5t-185.5 49t-143.5 91.5t-99 142.5t-60 202 t-19 270.5zM236 748q0 -104 8 -187t27 -147.5t44.5 -112.5t65 -82t83.5 -56t105.5 -34.5t126 -17.5t150.5 -5q98 0 169.5 6.5t138.5 23.5t112.5 48t83.5 78.5t59.5 115.5t33 159.5t11.5 210.5q0 104 -8 186.5t-27 147t-44 111.5t-64.5 81t-83 55t-105.5 33.5t-126 17 t-150 4.5t-150 -4.5t-126.5 -17t-106 -33.5t-83.5 -55t-65 -81t-44 -111.5t-27 -147t-8 -186.5zM545 297v901h370q259 0 259 -283q0 -124 -37.5 -187.5t-122.5 -86.5l241 -344h-141l-233 321h-207v-321h-129zM674 731h213q78 0 117.5 40.5t39.5 143.5q0 100 -37.5 135 t-103.5 35h-229v-354z" />
<glyph unicode="&#xaf;" horiz-adv-x="933" d="M205 1098v157h528v-157h-528z" />
<glyph unicode="&#xb0;" horiz-adv-x="868" d="M61 1104q0 212 96 310.5t279 98.5t277 -96.5t94 -308.5q0 -410 -375 -410q-183 0 -277 97t-94 309zM207 1108q0 -87 17 -145t51 -86t71 -38t90 -10q54 0 90 9.5t69.5 36.5t50 84t16.5 145q0 71 -12 122t-31.5 80.5t-51 47t-62.5 23t-73 5.5t-72.5 -5t-61 -22t-49.5 -46 t-30.5 -79.5t-11.5 -121.5z" />
<glyph unicode="&#xb1;" horiz-adv-x="1853" d="M53 817v135h170v154q0 65 9 109t32.5 82t69 65t113.5 50t171 44l29 -135q-65 -14 -108 -25.5t-75 -26.5t-49 -28.5t-27 -36.5t-12.5 -46t-2.5 -60v-146h522v230q0 81 15 133t57.5 94.5t114 70.5t188.5 52l28 -135q-86 -18 -135 -35t-76.5 -44t-35 -58t-7.5 -86v-222h256 v-135h-256v-817h-149v817h-522v-817h-150v817h-170zM1559 0v1528h149v-1528h-149z" />
<glyph unicode="&#xb2;" horiz-adv-x="856" d="M106 543v108l240 246q21 21 57 58q46 47 65 66t42.5 47.5t29.5 40.5t14 36.5t8.5 43.5t0.5 54q0 69 -37.5 96t-138.5 27q-95 0 -252 -33l-26 125q143 41 280 41q172 0 245 -60.5t73 -193.5q0 -32 -1 -57t-8 -50t-10.5 -40.5t-19.5 -40t-23.5 -36.5t-34 -41t-40 -43 t-53 -54t-60.5 -62l-144 -147h424v-131h-631z" />
<glyph unicode="&#xb3;" horiz-adv-x="864" d="M106 1356v131h586v-117l-209 -223q108 -24 140 -43q60 -33 87 -91.5t27 -148.5q0 -183 -110 -248q-128 -75 -486 -84l-8 132q341 14 420 63q41 25 41 133q0 107 -39 129q-59 36 -233 49v109l192 209h-408z" />
<glyph unicode="&#xb4;" horiz-adv-x="919" d="M346 1098l176 348h258l-340 -348h-94z" />
<glyph unicode="&#xb6;" horiz-adv-x="1159" d="M55 1059q0 235 101.5 331.5t328.5 96.5h519v-1487h-150v623h-203v-623h-149v623q-236 0 -341.5 98.5t-105.5 337.5zM205 1055q0 -77 16 -132.5t40 -86.5t63.5 -48.5t75 -22.5t85.5 -5h369v590h-365q-50 0 -86.5 -5t-76 -22.5t-64.5 -48.5t-41 -86.5t-16 -132.5z" />
<glyph unicode="&#xb7;" horiz-adv-x="485" d="M131 633v225h227v-225h-227z" />
<glyph unicode="&#xb8;" horiz-adv-x="1024" d="M344 -252q108 18 168 51l-37 205l141 27l60 -301q-96 -96 -305 -127z" />
<glyph unicode="&#xb9;" horiz-adv-x="636" d="M133 1354v133h309v-942h-139v809h-170z" />
<glyph unicode="&#xba;" horiz-adv-x="851" d="M55 1104q0 212 96 310.5t279 98.5q184 0 277.5 -96t93.5 -309t-96 -311.5t-279 -98.5t-277 97t-94 309zM102 465v135h652v-135h-652zM201 1108q0 -88 17 -145.5t50.5 -86t71 -39t90.5 -10.5q42 0 72.5 5.5t61 22.5t49.5 46.5t30.5 80.5t11.5 122t-12 122t-31.5 81 t-50.5 48t-62 23.5t-73 5.5q-53 0 -89.5 -9.5t-69.5 -37t-49.5 -84.5t-16.5 -145z" />
<glyph unicode="&#xbb;" horiz-adv-x="1019" d="M133 51l225 422l-225 418h146l245 -418l-245 -422h-146zM526 51l226 422l-226 418h146l246 -418l-246 -422h-146z" />
<glyph unicode="&#xbc;" horiz-adv-x="1654" d="M133 1354v133h309v-942h-139v809h-170zM393 0l578 1487h131l-578 -1487h-131zM856 217v127l358 602h152l-356 -596h297v271h141v-271h108v-133h-108v-217h-141v217h-451z" />
<glyph unicode="&#xbd;" horiz-adv-x="1779" d="M133 1354v133h309v-942h-139v809h-170zM393 0l578 1487h131l-578 -1487h-131zM983 0v109l240 245q21 21 57 58q46 47 65 66t42.5 47.5t29.5 40.5t14 36.5t8.5 43.5t0.5 54q0 69 -37.5 96t-138.5 27q-100 0 -252 -32l-27 124q143 41 281 41q172 0 244.5 -60.5t72.5 -193.5 q0 -32 -1.5 -57t-8 -50t-10 -40.5t-19 -39.5t-23.5 -36t-34.5 -41t-40.5 -43.5t-52.5 -53.5t-60.5 -62l-143 -148h424v-131h-631z" />
<glyph unicode="&#xbe;" horiz-adv-x="1828" d="M106 1356v131h586v-117l-209 -223q108 -24 140 -43q60 -33 87 -91.5t27 -148.5q0 -183 -110 -248q-128 -75 -486 -84l-8 132q341 14 420 63q41 25 41 133q0 107 -39 129q-59 36 -233 49v109l192 209h-408zM567 0l578 1487h131l-578 -1487h-131zM1030 217v127l359 602h151 l-356 -596h297v271h141v-271h109v-133h-109v-217h-141v217h-451z" />
<glyph unicode="&#xbf;" horiz-adv-x="1054" d="M35 369q0 128 39.5 207.5t138.5 145t299 144.5v236h150v-322q-111 -42 -178 -69.5t-126.5 -59t-88.5 -56t-51 -60t-28 -72t-6 -90.5q0 -129 80.5 -180.5t284.5 -51.5q197 0 412 45l28 -129q-73 -22 -196 -39.5t-244 -17.5q-280 0 -397 84t-117 285zM477 1288v225h228 v-225h-228z" />
<glyph unicode="&#xc0;" horiz-adv-x="1353" d="M39 0l571 1497h133l572 -1497h-154l-137 360h-700l-138 -360h-147zM356 1937h258l177 -348h-95zM377 498h594l-297 780z" />
<glyph unicode="&#xc1;" horiz-adv-x="1353" d="M39 0l571 1497h133l572 -1497h-154l-137 360h-700l-138 -360h-147zM377 498h594l-297 780zM563 1589l176 348h258l-340 -348h-94z" />
<glyph unicode="&#xc2;" horiz-adv-x="1353" d="M39 0l571 1497h133l572 -1497h-154l-137 360h-700l-138 -360h-147zM354 1548l252 320h142l251 -320h-108l-215 174l-213 -174h-109zM377 498h594l-297 780z" />
<glyph unicode="&#xc3;" horiz-adv-x="1353" d="M39 0l571 1497h133l572 -1497h-154l-137 360h-700l-138 -360h-147zM334 1683q107 87 148 112.5t91 25.5q32 0 75.5 -23.5t79.5 -47.5t50 -24q7 0 13.5 2t15.5 7t16.5 10t20.5 15.5t23.5 19t29 24t33.5 27.5l88 -102q-14 -11 -39 -32t-34.5 -28.5t-28 -22.5t-26 -19.5 t-22 -13.5t-22.5 -11.5t-20.5 -6.5t-24 -5t-25.5 -1q-32 0 -75 23.5t-79.5 47t-50.5 23.5q-5 0 -10 -1t-11 -4t-11.5 -6t-13.5 -9t-14.5 -10.5t-18 -14t-20 -16.5t-24 -19.5t-26.5 -21.5zM377 498h594l-297 780z" />
<glyph unicode="&#xc4;" horiz-adv-x="1353" d="M39 0l571 1497h133l572 -1497h-154l-137 360h-700l-138 -360h-147zM147 1270v217h213v-217h-213zM377 498h594l-297 780zM989 1270v217h215v-217h-215z" />
<glyph unicode="&#xc5;" horiz-adv-x="1353" d="M39 0l541 1415q-58 20 -82.5 67.5t-24.5 125.5q0 105 44.5 156t152.5 51t152 -51t44 -156q0 -150 -94 -189l543 -1419h-154l-137 360h-700l-138 -360h-147zM377 498h594l-297 780zM573 1608q0 -58 18.5 -81.5t78.5 -23.5t78 23.5t18 81.5q0 59 -18 83.5t-78 24.5 t-78.5 -25t-18.5 -83z" />
<glyph unicode="&#xc6;" horiz-adv-x="1974" d="M39 0l891 1487h958v-139h-723v-492h553v-139h-553v-578h723v-139h-868v465h-545l-270 -465h-166zM559 606h461v772z" />
<glyph unicode="&#xc7;" horiz-adv-x="1187" d="M86 743q0 113 10.5 207.5t28.5 167t46 130.5t60 99t74 71t84 48t94.5 29t100 14.5t106.5 3.5q131 0 242 -17t168 -36l-33 -133q-203 45 -381 45q-92 0 -158 -15t-122 -52.5t-89.5 -102.5t-52 -165t-18.5 -240v-99q0 -136 19 -236t54 -166t91 -105.5t123.5 -55.5 t158.5 -16q104 0 217.5 17t159.5 30l33 -133q-162 -53 -393 -56l49 -247q-96 -96 -305 -127l-27 145q108 18 168 51l-33 185q-60 6 -110 19t-100 39t-89 64t-73 96.5t-56 134t-34.5 178.5t-12.5 228z" />
<glyph unicode="&#xc8;" horiz-adv-x="1114" d="M156 0v1487h872v-139h-723v-492h553v-139h-553v-578h723v-139h-872zM238 1937h258l176 -348h-94z" />
<glyph unicode="&#xc9;" horiz-adv-x="1114" d="M156 0v1487h872v-139h-723v-492h553v-139h-553v-578h723v-139h-872zM444 1589l177 348h258l-340 -348h-95z" />
<glyph unicode="&#xca;" horiz-adv-x="1114" d="M156 0v1487h872v-139h-723v-492h553v-139h-553v-578h723v-139h-872zM236 1589l251 320h142l252 -320h-109l-215 174l-213 -174h-108z" />
<glyph unicode="&#xcb;" horiz-adv-x="1114" d="M156 0v1487h872v-139h-723v-492h553v-139h-553v-578h723v-139h-872zM254 1610v217h213v-217h-213zM645 1610v217h215v-217h-215z" />
<glyph unicode="&#xcc;" horiz-adv-x="495" d="M-133 1937h258l176 -348h-94zM174 0v1487h152v-1487h-152z" />
<glyph unicode="&#xcd;" horiz-adv-x="495" d="M174 0v1487h152v-1487h-152zM197 1589l176 348h258l-340 -348h-94z" />
<glyph unicode="&#xce;" horiz-adv-x="495" d="M-74 1589l252 320h141l252 -320h-108l-215 174l-213 -174h-109zM174 0v1487h152v-1487h-152z" />
<glyph unicode="&#xcf;" horiz-adv-x="495" d="M-55 1610v217h213v-217h-213zM174 0v1487h152v-1487h-152zM336 1610v217h215v-217h-215z" />
<glyph unicode="&#xd0;" horiz-adv-x="1415" d="M53 707v135h185v645h495q118 0 205.5 -19t164 -68.5t124.5 -132.5t75 -214t27 -310t-27 -310t-75 -213.5t-124.5 -132t-164 -68.5t-205.5 -19l-495 -4v711h-185zM387 131h344q85 0 149.5 15t120.5 53t92 101t56 161.5t20 232.5v99q0 134 -20 233t-56 162t-92 101 t-120.5 52.5t-149.5 14.5h-344v-514h250v-135h-250v-576z" />
<glyph unicode="&#xd1;" horiz-adv-x="1411" d="M156 0v1487h141l815 -1221v1221h143v-1487h-135l-821 1229v-1229h-143zM362 1683q106 87 148 112.5t92 25.5q32 0 75.5 -23.5t80 -47.5t49.5 -24q9 0 18.5 3.5t24.5 14.5t25.5 19t37.5 31t45 37l89 -102q-14 -11 -39 -32t-34.5 -28.5t-28 -22.5t-26 -19.5t-22 -13.5 t-22.5 -11.5t-20.5 -6.5t-24 -5t-25.5 -1q-32 0 -75 23.5t-79.5 47t-50.5 23.5q-5 0 -10 -1t-11 -4t-11.5 -6t-13.5 -9t-14.5 -10.5t-18 -14t-20 -16.5t-24 -19.5t-26.5 -21.5z" />
<glyph unicode="&#xd2;" horiz-adv-x="1421" d="M86 743q0 184 33 322t87.5 222.5t137 136t170.5 70.5t199 19t198.5 -18.5t169.5 -69.5t135.5 -134.5t86 -221t32.5 -321.5t-32.5 -322t-87.5 -222.5t-137 -136.5t-170 -71t-199 -19t-198.5 18.5t-169.5 69.5t-136 135t-86.5 221.5t-32.5 321.5zM246 698 q0 -116 15.5 -207.5t46 -154t70.5 -106t94.5 -67.5t112 -34t128.5 -10q87 0 152.5 14t126.5 52t99.5 101t61.5 166t23 242v99q0 116 -15.5 207.5t-46 154t-70.5 106t-94.5 67.5t-112 34t-128.5 10q-87 0 -152.5 -14t-126.5 -52t-99.5 -101t-61.5 -166t-23 -242v-99z M391 1937h258l176 -348h-94z" />
<glyph unicode="&#xd3;" horiz-adv-x="1421" d="M86 743q0 184 33 322t87.5 222.5t137 136t170.5 70.5t199 19t198.5 -18.5t169.5 -69.5t135.5 -134.5t86 -221t32.5 -321.5t-32.5 -322t-87.5 -222.5t-137 -136.5t-170 -71t-199 -19t-198.5 18.5t-169.5 69.5t-136 135t-86.5 221.5t-32.5 321.5zM246 698 q0 -116 15.5 -207.5t46 -154t70.5 -106t94.5 -67.5t112 -34t128.5 -10q87 0 152.5 14t126.5 52t99.5 101t61.5 166t23 242v99q0 116 -15.5 207.5t-46 154t-70.5 106t-94.5 67.5t-112 34t-128.5 10q-87 0 -152.5 -14t-126.5 -52t-99.5 -101t-61.5 -166t-23 -242v-99z M598 1589l176 348h258l-340 -348h-94z" />
<glyph unicode="&#xd4;" horiz-adv-x="1421" d="M86 743q0 184 33 322t87.5 222.5t137 136t170.5 70.5t199 19t198.5 -18.5t169.5 -69.5t135.5 -134.5t86 -221t32.5 -321.5t-32.5 -322t-87.5 -222.5t-137 -136.5t-170 -71t-199 -19t-198.5 18.5t-169.5 69.5t-136 135t-86.5 221.5t-32.5 321.5zM246 698 q0 -116 15.5 -207.5t46 -154t70.5 -106t94.5 -67.5t112 -34t128.5 -10q87 0 152.5 14t126.5 52t99.5 101t61.5 166t23 242v99q0 116 -15.5 207.5t-46 154t-70.5 106t-94.5 67.5t-112 34t-128.5 10q-87 0 -152.5 -14t-126.5 -52t-99.5 -101t-61.5 -166t-23 -242v-99z M389 1589l252 320h141l252 -320h-108l-215 174l-213 -174h-109z" />
<glyph unicode="&#xd5;" horiz-adv-x="1421" d="M86 743q0 184 33 322t87.5 222.5t137 136t170.5 70.5t199 19t198.5 -18.5t169.5 -69.5t135.5 -134.5t86 -221t32.5 -321.5t-32.5 -322t-87.5 -222.5t-137 -136.5t-170 -71t-199 -19t-198.5 18.5t-169.5 69.5t-136 135t-86.5 221.5t-32.5 321.5zM246 698 q0 -116 15.5 -207.5t46 -154t70.5 -106t94.5 -67.5t112 -34t128.5 -10q87 0 152.5 14t126.5 52t99.5 101t61.5 166t23 242v99q0 116 -15.5 207.5t-46 154t-70.5 106t-94.5 67.5t-112 34t-128.5 10q-87 0 -152.5 -14t-126.5 -52t-99.5 -101t-61.5 -166t-23 -242v-99z M369 1683q107 87 148 112.5t91 25.5q32 0 75.5 -23.5t80 -47.5t49.5 -24q7 0 13.5 2t15.5 7t16.5 10t20.5 15.5t23.5 19t29 24t33.5 27.5l88 -102q-14 -11 -39 -32t-34.5 -28.5t-28 -22.5t-26 -19.5t-22 -13.5t-22.5 -11.5t-20.5 -6.5t-24 -5t-25.5 -1q-32 0 -75 23.5 t-79.5 47t-50.5 23.5q-5 0 -10 -1t-11 -4t-11.5 -6t-13.5 -9t-14.5 -10.5t-18 -14t-20 -16.5t-24 -19.5t-26.5 -21.5z" />
<glyph unicode="&#xd6;" horiz-adv-x="1421" d="M86 743q0 184 33 322t87.5 222.5t137 136t170.5 70.5t199 19t198.5 -18.5t169.5 -69.5t135.5 -134.5t86 -221t32.5 -321.5t-32.5 -322t-87.5 -222.5t-137 -136.5t-170 -71t-199 -19t-198.5 18.5t-169.5 69.5t-136 135t-86.5 221.5t-32.5 321.5zM246 698 q0 -116 15.5 -207.5t46 -154t70.5 -106t94.5 -67.5t112 -34t128.5 -10q87 0 152.5 14t126.5 52t99.5 101t61.5 166t23 242v99q0 116 -15.5 207.5t-46 154t-70.5 106t-94.5 67.5t-112 34t-128.5 10q-87 0 -152.5 -14t-126.5 -52t-99.5 -101t-61.5 -166t-23 -242v-99z M408 1610v217h213v-217h-213zM799 1610v217h215v-217h-215z" />
<glyph unicode="&#xd7;" horiz-adv-x="1030" d="M162 420l260 260l-260 260l94 94l260 -260l258 260l94 -94l-258 -260l258 -260l-94 -94l-258 260l-260 -260z" />
<glyph unicode="&#xd8;" horiz-adv-x="1421" d="M86 743q0 184 33 322t87.5 222.5t137 136t170.5 70.5t199 19q191 0 317 -59l88 156h139l-122 -224q200 -180 200 -638q0 -184 -32.5 -322t-87.5 -222.5t-137 -136.5t-170 -71t-199 -19q-192 0 -322 62l-88 -158h-137q68 123 125 225q-201 178 -201 637zM246 698 q0 -314 116 -452l596 1077q-93 49 -249 49q-87 0 -152.5 -14t-126.5 -52t-99.5 -101t-61.5 -166t-23 -242v-99zM459 170q94 -51 254 -51q87 0 152.5 14t126.5 52t99.5 101t61.5 166t23 242v99q0 312 -119 454z" />
<glyph unicode="&#xd9;" horiz-adv-x="1406" d="M135 528v959h152v-942q0 -123 21 -202t71.5 -128.5t129 -69.5t200.5 -20q123 0 200 18t128 66t71 126.5t20 205.5v946h146v-955q0 -110 -16 -194.5t-49.5 -145t-79.5 -102t-112 -65.5t-140.5 -34.5t-171.5 -10.5q-117 0 -202 14t-157.5 50t-117 97t-69 157.5t-24.5 229.5 zM383 1937h258l176 -348h-94z" />
<glyph unicode="&#xda;" horiz-adv-x="1406" d="M135 528v959h152v-942q0 -123 21 -202t71.5 -128.5t129 -69.5t200.5 -20q123 0 200 18t128 66t71 126.5t20 205.5v946h146v-955q0 -110 -16 -194.5t-49.5 -145t-79.5 -102t-112 -65.5t-140.5 -34.5t-171.5 -10.5q-117 0 -202 14t-157.5 50t-117 97t-69 157.5t-24.5 229.5 zM590 1589l176 348h258l-340 -348h-94z" />
<glyph unicode="&#xdb;" horiz-adv-x="1406" d="M135 528v959h152v-942q0 -123 21 -202t71.5 -128.5t129 -69.5t200.5 -20q123 0 200 18t128 66t71 126.5t20 205.5v946h146v-955q0 -110 -16 -194.5t-49.5 -145t-79.5 -102t-112 -65.5t-140.5 -34.5t-171.5 -10.5q-117 0 -202 14t-157.5 50t-117 97t-69 157.5t-24.5 229.5 zM381 1589l252 320h141l252 -320h-108l-216 174l-213 -174h-108z" />
<glyph unicode="&#xdc;" horiz-adv-x="1406" d="M135 528v959h152v-942q0 -123 21 -202t71.5 -128.5t129 -69.5t200.5 -20q123 0 200 18t128 66t71 126.5t20 205.5v946h146v-955q0 -110 -16 -194.5t-49.5 -145t-79.5 -102t-112 -65.5t-140.5 -34.5t-171.5 -10.5q-117 0 -202 14t-157.5 50t-117 97t-69 157.5t-24.5 229.5 zM399 1610v217h213v-217h-213zM791 1610v217h215v-217h-215z" />
<glyph unicode="&#xdd;" horiz-adv-x="1335" d="M39 1487h166l467 -746l469 746h155l-555 -883v-604h-149v604zM555 1589l176 348h258l-340 -348h-94z" />
<glyph unicode="&#xde;" horiz-adv-x="1226" d="M156 0v1487h149v-297h438q217 0 318.5 -97.5t101.5 -330.5t-103.5 -332.5t-320.5 -99.5h-434v-330h-149zM305 463h438q49 0 84.5 5t73 22.5t60.5 48.5t38 86.5t15 132.5t-15.5 133t-39 87.5t-61.5 49.5t-74 23.5t-85 5.5h-434v-594z" />
<glyph unicode="&#xdf;" horiz-adv-x="1239" d="M53 817v135h170v342q0 136 74.5 200.5t261.5 64.5q237 0 329.5 -54.5t92.5 -208.5q0 -55 -9.5 -99t-22.5 -75.5t-46 -71.5t-58.5 -66t-82.5 -79q117 -19 192.5 -47.5t122.5 -79.5q94 -105 94 -311q0 -217 -90 -317q-66 -73 -191 -107t-358 -61l-18 133q202 22 303 47 t148 74q61 61 61 227q0 169 -68 231q-45 41 -128 64t-224 39v121q60 56 89.5 84.5t60 63t41.5 53t21 49t11.5 56t1.5 68.5q0 30 -6.5 51.5t-24 36t-37 22.5t-56 12.5t-70.5 5.5t-90 1q-105 0 -140.5 -31t-35.5 -116v-1274h-148v817h-170z" />
<glyph unicode="&#xe0;" horiz-adv-x="1001" d="M84 270q0 98 22.5 158.5t77.5 87.5q85 40 197.5 51t339.5 11v49q0 66 -7 105.5t-28.5 69.5t-61.5 42t-106 12q-164 0 -309 -37l-29 131q184 41 342 41q190 0 269 -76t79 -264v-651h-108l-31 102q-33 -21 -80 -44t-137 -47.5t-174 -24.5q-256 0 -256 284zM186 1446h258 l177 -348h-95zM236 262q0 -84 34.5 -113.5t110.5 -29.5q82 0 182 35t158 73v230q-200 0 -296.5 -10t-139.5 -33q-49 -27 -49 -152z" />
<glyph unicode="&#xe1;" horiz-adv-x="1001" d="M84 270q0 98 22.5 158.5t77.5 87.5q85 40 197.5 51t339.5 11v49q0 66 -7 105.5t-28.5 69.5t-61.5 42t-106 12q-164 0 -309 -37l-29 131q184 41 342 41q190 0 269 -76t79 -264v-651h-108l-31 102q-33 -21 -80 -44t-137 -47.5t-174 -24.5q-256 0 -256 284zM236 262 q0 -84 34.5 -113.5t110.5 -29.5q82 0 182 35t158 73v230q-200 0 -296.5 -10t-139.5 -33q-49 -27 -49 -152zM393 1098l176 348h258l-340 -348h-94z" />
<glyph unicode="&#xe2;" horiz-adv-x="1001" d="M84 270q0 98 22.5 158.5t77.5 87.5q85 40 197.5 51t339.5 11v49q0 66 -7 105.5t-28.5 69.5t-61.5 42t-106 12q-164 0 -309 -37l-29 131q184 41 342 41q190 0 269 -76t79 -264v-651h-108l-31 102q-33 -21 -80 -44t-137 -47.5t-174 -24.5q-256 0 -256 284zM184 1098 l252 319h142l251 -319h-108l-215 174l-213 -174h-109zM236 262q0 -84 34.5 -113.5t110.5 -29.5q82 0 182 35t158 73v230q-200 0 -296.5 -10t-139.5 -33q-49 -27 -49 -152z" />
<glyph unicode="&#xe3;" horiz-adv-x="1001" d="M84 270q0 98 22.5 158.5t77.5 87.5q85 40 197.5 51t339.5 11v49q0 66 -7 105.5t-28.5 69.5t-61.5 42t-106 12q-164 0 -309 -37l-29 131q184 41 342 41q190 0 269 -76t79 -264v-651h-108l-31 102q-33 -21 -80 -44t-137 -47.5t-174 -24.5q-256 0 -256 284zM164 1192 q106 86 147.5 111.5t91.5 25.5q32 0 75.5 -23.5t79.5 -47t50 -23.5q7 0 13.5 2t15.5 7t16.5 9.5t21 15.5t23 18.5t29 24t33.5 27.5l88 -102q-13 -10 -35.5 -29t-31.5 -26.5t-26.5 -21t-24.5 -18.5t-20.5 -14t-20.5 -12t-18.5 -8t-20.5 -6t-20.5 -2.5t-23.5 -1.5 q-32 0 -75 23.5t-79.5 47t-50.5 23.5q-5 0 -10 -1t-11 -4t-11.5 -6t-13.5 -9t-14.5 -10.5t-18 -14t-20 -16.5t-24 -19.5t-26.5 -21.5zM236 262q0 -84 34.5 -113.5t110.5 -29.5q82 0 182 35t158 73v230q-200 0 -296.5 -10t-139.5 -33q-49 -27 -49 -152z" />
<glyph unicode="&#xe4;" horiz-adv-x="1001" d="M84 270q0 98 22.5 158.5t77.5 87.5q85 40 197.5 51t339.5 11v49q0 66 -7 105.5t-28.5 69.5t-61.5 42t-106 12q-164 0 -309 -37l-29 131q184 41 342 41q190 0 269 -76t79 -264v-651h-108l-31 102q-33 -21 -80 -44t-137 -47.5t-174 -24.5q-256 0 -256 284zM203 1118v217 h213v-217h-213zM236 262q0 -84 34.5 -113.5t110.5 -29.5q82 0 182 35t158 73v230q-200 0 -296.5 -10t-139.5 -33q-49 -27 -49 -152zM594 1118v217h215v-217h-215z" />
<glyph unicode="&#xe5;" horiz-adv-x="1001" d="M84 270q0 98 22.5 158.5t77.5 87.5q85 40 197.5 51t339.5 11v49q0 66 -7 105.5t-28.5 69.5t-61.5 42t-106 12q-164 0 -309 -37l-29 131q184 41 342 41q190 0 269 -76t79 -264v-651h-108l-31 102q-33 -21 -80 -44t-137 -47.5t-174 -24.5q-256 0 -256 284zM236 262 q0 -84 34.5 -113.5t110.5 -29.5q82 0 182 35t158 73v230q-200 0 -296.5 -10t-139.5 -33q-49 -27 -49 -152zM311 1286q0 105 44.5 156t152.5 51t152.5 -51t44.5 -156q0 -104 -45 -154.5t-152 -50.5q-108 0 -152.5 50.5t-44.5 154.5zM412 1286q0 -58 18 -81t78 -23t78 23 t18 81q0 59 -18 84t-78 25t-78 -25t-18 -84z" />
<glyph unicode="&#xe6;" horiz-adv-x="1619" d="M84 270q0 161 66 222q64 60 194 78t379 18v39q0 66 -7.5 105.5t-29 69.5t-62 42t-106.5 12q-162 0 -299 -35l-29 131q176 39 332 39q125 0 197.5 -31.5t105.5 -103.5q102 139 312 139q205 0 300 -102t95 -348v-78h-658q1 -88 15.5 -151.5t38 -103t61 -62.5t79.5 -31 t99 -8q75 0 162.5 9.5t134.5 22.5l27 -129q-50 -14 -145.5 -26.5t-182.5 -12.5q-272 0 -372 170q-193 -159 -451 -159q-256 0 -256 284zM236 262q0 -84 34.5 -113.5t110.5 -29.5q80 0 187.5 37t181.5 94q-24 92 -27 217q-205 0 -305.5 -12.5t-143.5 -48.5q-17 -15 -26 -39 t-10.5 -45t-1.5 -60zM881 586h495q0 158 -56.5 217t-189.5 59q-108 0 -171.5 -60t-77.5 -216z" />
<glyph unicode="&#xe7;" horiz-adv-x="905" d="M72 483q0 269 109.5 388.5t336.5 119.5q70 0 156.5 -12.5t140.5 -26.5l-29 -131q-157 35 -274 35q-58 0 -98.5 -7.5t-78.5 -30.5t-60.5 -63t-36 -107t-13.5 -161t13.5 -161.5t37 -109t61.5 -65t79.5 -32t99.5 -8.5q65 0 143.5 11t128.5 25l31 -129q-136 -36 -252 -41 l49 -247q-96 -96 -305 -127l-26 145q108 18 168 51l-33 183q-179 22 -263.5 141.5t-84.5 359.5z" />
<glyph unicode="&#xe8;" d="M72 483q0 138 30.5 238.5t86.5 159.5t129.5 86.5t166.5 27.5q205 0 300.5 -102t95.5 -348v-78h-658q1 -88 15.5 -151.5t38 -103t61 -62.5t79.5 -31t99 -8q75 0 162.5 9.5t134.5 22.5l27 -129q-50 -14 -145.5 -26.5t-182.5 -12.5q-226 0 -333 119t-107 389zM164 1446h258 l176 -348h-94zM229 586h496q0 158 -56.5 217t-189.5 59q-108 0 -172 -60t-78 -216z" />
<glyph unicode="&#xe9;" d="M72 483q0 138 30.5 238.5t86.5 159.5t129.5 86.5t166.5 27.5q205 0 300.5 -102t95.5 -348v-78h-658q1 -88 15.5 -151.5t38 -103t61 -62.5t79.5 -31t99 -8q75 0 162.5 9.5t134.5 22.5l27 -129q-50 -14 -145.5 -26.5t-182.5 -12.5q-226 0 -333 119t-107 389zM229 586h496 q0 158 -56.5 217t-189.5 59q-108 0 -172 -60t-78 -216zM371 1098l176 348h258l-340 -348h-94z" />
<glyph unicode="&#xea;" d="M72 483q0 138 30.5 238.5t86.5 159.5t129.5 86.5t166.5 27.5q205 0 300.5 -102t95.5 -348v-78h-658q1 -88 15.5 -151.5t38 -103t61 -62.5t79.5 -31t99 -8q75 0 162.5 9.5t134.5 22.5l27 -129q-50 -14 -145.5 -26.5t-182.5 -12.5q-226 0 -333 119t-107 389zM162 1098 l252 319h141l252 -319h-109l-215 174l-213 -174h-108zM229 586h496q0 158 -56.5 217t-189.5 59q-108 0 -172 -60t-78 -216z" />
<glyph unicode="&#xeb;" d="M72 483q0 138 30.5 238.5t86.5 159.5t129.5 86.5t166.5 27.5q205 0 300.5 -102t95.5 -348v-78h-658q1 -88 15.5 -151.5t38 -103t61 -62.5t79.5 -31t99 -8q75 0 162.5 9.5t134.5 22.5l27 -129q-50 -14 -145.5 -26.5t-182.5 -12.5q-226 0 -333 119t-107 389zM180 1118v217 h213v-217h-213zM229 586h496q0 158 -56.5 217t-189.5 59q-108 0 -172 -60t-78 -216zM571 1118v217h215v-217h-215z" />
<glyph unicode="&#xec;" horiz-adv-x="440" d="M-162 1446h258l176 -348h-94zM145 0v952h150v-952h-150z" />
<glyph unicode="&#xed;" horiz-adv-x="440" d="M145 0v952h150v-952h-150zM168 1098l176 348h258l-340 -348h-94z" />
<glyph unicode="&#xee;" horiz-adv-x="440" d="M-102 1098l252 319h141l252 -319h-109l-215 174l-213 -174h-108zM145 0v952h150v-952h-150z" />
<glyph unicode="&#xef;" horiz-adv-x="440" d="M-84 1118v217h213v-217h-213zM145 0v952h150v-952h-150zM307 1118v217h215v-217h-215z" />
<glyph unicode="&#xf0;" horiz-adv-x="1085" d="M92 494q0 76 7 139.5t18.5 110t30.5 83t37.5 60.5t46 41t49.5 26t54.5 14t55 6t55.5 1q98 0 208.5 -27t193.5 -71q-14 134 -39 253h-205v138h172q-22 76 -74 213l140 47q54 -122 90 -260h172v-138h-143q45 -222 45 -477q0 -90 -2.5 -154.5t-10 -134.5t-22 -117.5t-38 -95 t-58 -77.5t-81.5 -54t-109.5 -34.5t-141.5 -10.5q-48 0 -87.5 4t-87.5 17.5t-85.5 35.5t-74.5 61.5t-61.5 93t-39.5 132t-15 175.5zM244 498q0 -111 19.5 -186.5t60 -119t94.5 -61.5t131 -18q44 0 80 4.5t65 16.5t51.5 25t39.5 37.5t29 47t20 59.5t13 69t7.5 82.5t3 92.5 t0.5 106q0 53 -2 78q-79 45 -185 76t-182 31q-58 0 -94.5 -7t-68 -27t-48 -58t-25.5 -98t-9 -150z" />
<glyph unicode="&#xf1;" horiz-adv-x="1081" d="M135 0v952h109l30 -96q65 37 182.5 78t223.5 41q134 0 202 -64.5t68 -201.5v-709h-149v670q0 93 -33 130.5t-127 37.5q-79 0 -186.5 -35.5t-169.5 -71.5v-731h-150zM199 1192q106 86 147.5 111.5t91.5 25.5q32 0 75.5 -23.5t79.5 -47t50 -23.5q7 0 13.5 2t15.5 7 t16.5 9.5t21 15.5t23 18.5t29 24t33.5 27.5l88 -102q-13 -10 -35.5 -29t-31.5 -26.5t-26.5 -21t-24.5 -18.5t-20.5 -14t-20.5 -12t-18.5 -8t-20.5 -6t-20.5 -2.5t-23.5 -1.5q-32 0 -75 23.5t-79.5 47t-50.5 23.5q-5 0 -10 -1t-11 -4t-11.5 -6t-13.5 -9t-14.5 -10.5t-18 -14 t-20 -16.5t-24 -19.5t-26.5 -21.5z" />
<glyph unicode="&#xf2;" horiz-adv-x="1064" d="M72 483q0 266 118 389t345 123q228 0 343 -120.5t115 -387.5t-117.5 -389.5t-345.5 -122.5q-227 0 -342.5 121t-115.5 387zM213 1446h258l176 -348h-94zM225 487q0 -93 16.5 -161.5t43 -109t68 -65t84 -32.5t98.5 -8t98 8t83 31.5t66.5 63.5t41.5 108t16 161t-16 161.5 t-43 109.5t-68 65t-84 32.5t-99 8.5t-97.5 -8t-82.5 -31.5t-67 -64t-42 -108.5t-16 -161z" />
<glyph unicode="&#xf3;" horiz-adv-x="1064" d="M72 483q0 266 118 389t345 123q228 0 343 -120.5t115 -387.5t-117.5 -389.5t-345.5 -122.5q-227 0 -342.5 121t-115.5 387zM225 487q0 -93 16.5 -161.5t43 -109t68 -65t84 -32.5t98.5 -8t98 8t83 31.5t66.5 63.5t41.5 108t16 161t-16 161.5t-43 109.5t-68 65t-84 32.5 t-99 8.5t-97.5 -8t-82.5 -31.5t-67 -64t-42 -108.5t-16 -161zM420 1098l176 348h258l-340 -348h-94z" />
<glyph unicode="&#xf4;" horiz-adv-x="1064" d="M72 483q0 266 118 389t345 123q228 0 343 -120.5t115 -387.5t-117.5 -389.5t-345.5 -122.5q-227 0 -342.5 121t-115.5 387zM211 1098l252 319h141l252 -319h-108l-216 174l-213 -174h-108zM225 487q0 -93 16.5 -161.5t43 -109t68 -65t84 -32.5t98.5 -8t98 8t83 31.5 t66.5 63.5t41.5 108t16 161t-16 161.5t-43 109.5t-68 65t-84 32.5t-99 8.5t-97.5 -8t-82.5 -31.5t-67 -64t-42 -108.5t-16 -161z" />
<glyph unicode="&#xf5;" horiz-adv-x="1064" d="M72 483q0 266 118 389t345 123q228 0 343 -120.5t115 -387.5t-117.5 -389.5t-345.5 -122.5q-227 0 -342.5 121t-115.5 387zM190 1192q105 86 147 111.5t93 25.5q32 0 75.5 -23.5t80 -47t49.5 -23.5q7 0 13.5 2t15.5 7t16.5 10t20.5 15t23 18.5t28.5 24t33.5 27.5l88 -102 q-14 -11 -39 -32t-34.5 -28.5t-28 -22t-25.5 -19.5t-21.5 -14t-22.5 -11t-21 -6t-24 -5t-25 -1q-32 0 -75 23.5t-79.5 47t-50.5 23.5q-5 0 -10 -1t-11 -4t-11.5 -6t-13.5 -9t-14.5 -10.5t-18 -14t-20 -16.5t-24 -19.5t-26.5 -21.5zM225 487q0 -93 16.5 -161.5t43 -109 t68 -65t84 -32.5t98.5 -8t98 8t83 31.5t66.5 63.5t41.5 108t16 161t-16 161.5t-43 109.5t-68 65t-84 32.5t-99 8.5t-97.5 -8t-82.5 -31.5t-67 -64t-42 -108.5t-16 -161z" />
<glyph unicode="&#xf6;" horiz-adv-x="1064" d="M72 483q0 266 118 389t345 123q228 0 343 -120.5t115 -387.5t-117.5 -389.5t-345.5 -122.5q-227 0 -342.5 121t-115.5 387zM225 487q0 -93 16.5 -161.5t43 -109t68 -65t84 -32.5t98.5 -8t98 8t83 31.5t66.5 63.5t41.5 108t16 161t-16 161.5t-43 109.5t-68 65t-84 32.5 t-99 8.5t-97.5 -8t-82.5 -31.5t-67 -64t-42 -108.5t-16 -161zM229 1118v217h213v-217h-213zM621 1118v217h215v-217h-215z" />
<glyph unicode="&#xf7;" horiz-adv-x="1038" d="M123 614v134h792v-134h-792zM412 246v215h215v-215h-215zM412 901v213h215v-213h-215z" />
<glyph unicode="&#xf8;" horiz-adv-x="1064" d="M55 -135l146 217q-129 126 -129 401q0 266 118 389t345 123q147 0 241 -47l92 137h162l-145 -219q108 -123 108 -379q0 -267 -117.5 -389.5t-345.5 -122.5q-122 0 -215 35l-98 -145h-162zM225 487q0 -183 62 -274l409 616q-63 31 -166 31q-56 0 -97.5 -8t-82.5 -31.5 t-67 -64t-42 -108.5t-16 -161zM393 131q61 -20 142 -20q56 0 98 8t83 31.5t66.5 63.5t41.5 108t16 161q0 160 -45 248z" />
<glyph unicode="&#xf9;" horiz-adv-x="1075" d="M131 248v704h150v-665q0 -93 32.5 -130.5t126.5 -37.5q79 0 184.5 33.5t166.5 68.5v731h149v-952h-109l-30 96q-62 -35 -177.5 -74.5t-222.5 -39.5q-134 0 -202 64.5t-68 201.5zM217 1446h258l176 -348h-94z" />
<glyph unicode="&#xfa;" horiz-adv-x="1075" d="M131 248v704h150v-665q0 -93 32.5 -130.5t126.5 -37.5q79 0 184.5 33.5t166.5 68.5v731h149v-952h-109l-30 96q-62 -35 -177.5 -74.5t-222.5 -39.5q-134 0 -202 64.5t-68 201.5zM424 1098l176 348h258l-340 -348h-94z" />
<glyph unicode="&#xfb;" horiz-adv-x="1075" d="M131 248v704h150v-665q0 -93 32.5 -130.5t126.5 -37.5q79 0 184.5 33.5t166.5 68.5v731h149v-952h-109l-30 96q-62 -35 -177.5 -74.5t-222.5 -39.5q-134 0 -202 64.5t-68 201.5zM215 1098l252 319h141l252 -319h-108l-215 174l-213 -174h-109z" />
<glyph unicode="&#xfc;" horiz-adv-x="1075" d="M131 248v704h150v-665q0 -93 32.5 -130.5t126.5 -37.5q79 0 184.5 33.5t166.5 68.5v731h149v-952h-109l-30 96q-62 -35 -177.5 -74.5t-222.5 -39.5q-134 0 -202 64.5t-68 201.5zM233 1118v217h213v-217h-213zM625 1118v217h215v-217h-215z" />
<glyph unicode="&#xfd;" d="M39 952h162q297 -762 297 -764l288 764h144l-520 -1362h-150q10 26 26.5 69.5t51.5 135t58.5 152t23.5 59.5zM371 1098l176 348h258l-340 -348h-94z" />
<glyph unicode="&#xfe;" horiz-adv-x="1087" d="M135 -410v1938h150v-668q37 21 87.5 43.5t141 47t168.5 24.5q36 0 62 -2.5t61 -14t60 -31t51 -56.5t42 -88t26.5 -128t10.5 -174t-11 -174.5t-28 -128.5t-44 -88.5t-53 -57.5t-61 -31t-62 -14t-62 -3q-75 0 -162.5 18.5t-138 35.5t-88.5 34v-482h-150zM285 203 q54 -26 162 -54t188 -28q59 0 95 14t63 52.5t38 108.5t11 181q0 148 -21.5 226.5t-63.5 106.5t-120 28q-81 0 -184.5 -35t-167.5 -72v-528z" />
<glyph unicode="&#xff;" d="M39 952h162q297 -762 297 -764l288 764h144l-520 -1362h-150q10 26 26.5 69.5t51.5 135t58.5 152t23.5 59.5zM180 1118v217h213v-217h-213zM571 1118v217h215v-217h-215z" />
<glyph unicode="&#x152;" horiz-adv-x="1982" d="M82 743q0 179 28 310t77 214t126.5 132.5t166.5 68.5t208 19h1208v-139h-722v-492h552v-139h-552v-578h722v-139h-1208q-84 0 -152 9.5t-132 32t-112.5 60t-89 95t-66.5 134.5t-40 180.5t-14 231.5zM242 694q0 -134 21.5 -232.5t58.5 -160.5t95 -99t123 -51t150 -14h334 v1213h-334q-85 0 -150 -14t-123 -51.5t-95 -99.5t-58.5 -160.5t-21.5 -231.5v-99z" />
<glyph unicode="&#x153;" horiz-adv-x="1746" d="M72 483q0 266 118 389t345 123q143 0 236.5 -46.5t143.5 -147.5q92 194 338 194q205 0 300.5 -102t95.5 -348v-78h-658q1 -88 15.5 -151.5t38 -103t61 -62.5t79.5 -31t99 -8q75 0 162.5 9.5t134.5 22.5l27 -129q-50 -14 -145.5 -26.5t-182.5 -12.5q-143 0 -233.5 46.5 t-135.5 146.5q-99 -193 -381 -193q-227 0 -342.5 121t-115.5 387zM225 487q0 -93 16.5 -161.5t43 -109t68 -65t84 -32.5t98.5 -8t98 8t83 31.5t66.5 63.5t41.5 108t16 161t-16 161.5t-43 109.5t-68 65t-84 32.5t-99 8.5t-97.5 -8t-82.5 -31.5t-67 -64t-42 -108.5t-16 -161z M997 586h496q0 158 -56.5 217t-189.5 59q-108 0 -172 -60t-78 -216z" />
<glyph unicode="&#x178;" horiz-adv-x="1335" d="M39 1487h166l467 -746l469 746h155l-555 -883v-604h-149v604zM365 1610v217h213v-217h-213zM756 1610v217h215v-217h-215z" />
<glyph unicode="&#x2c6;" horiz-adv-x="931" d="M143 1098l252 319h142l251 -319h-108l-215 174l-213 -174h-109z" />
<glyph unicode="&#x2dc;" horiz-adv-x="921" d="M119 1192q106 86 147.5 111.5t91.5 25.5q32 0 75.5 -23.5t80 -47t49.5 -23.5q7 0 13.5 2t15.5 7t16.5 9.5t21 15.5t23 18.5t29 24t33.5 27.5l88 -102q-13 -10 -35.5 -29t-31.5 -26.5t-26.5 -21t-24.5 -18.5t-20.5 -14t-20.5 -12t-18.5 -8t-20.5 -6t-20.5 -2.5t-23.5 -1.5 q-32 0 -75 23.5t-79.5 47t-50.5 23.5q-5 0 -10 -1t-11 -4t-11.5 -6t-13.5 -9t-14.5 -10.5t-18 -14t-20 -16.5t-24 -19.5t-26.5 -21.5z" />
<glyph unicode="&#x2000;" />
<glyph unicode="&#x2001;" horiz-adv-x="1937" />
<glyph unicode="&#x2002;" />
<glyph unicode="&#x2003;" horiz-adv-x="1937" />
<glyph unicode="&#x2004;" horiz-adv-x="645" />
<glyph unicode="&#x2005;" horiz-adv-x="484" />
<glyph unicode="&#x2006;" horiz-adv-x="322" />
<glyph unicode="&#x2007;" horiz-adv-x="322" />
<glyph unicode="&#x2008;" horiz-adv-x="242" />
<glyph unicode="&#x2009;" horiz-adv-x="387" />
<glyph unicode="&#x200a;" horiz-adv-x="107" />
<glyph unicode="&#x2010;" horiz-adv-x="802" d="M123 475v148h557v-148h-557z" />
<glyph unicode="&#x2011;" horiz-adv-x="802" d="M123 475v148h557v-148h-557z" />
<glyph unicode="&#x2012;" horiz-adv-x="802" d="M123 475v148h557v-148h-557z" />
<glyph unicode="&#x2013;" horiz-adv-x="1134" d="M123 475v148h889v-148h-889z" />
<glyph unicode="&#x2014;" horiz-adv-x="1697" d="M123 475v148h1452v-148h-1452z" />
<glyph unicode="&#x2018;" horiz-adv-x="581" d="M121 1038l272 492l72 -43l-103 -449h-241z" />
<glyph unicode="&#x2019;" horiz-adv-x="581" d="M117 1038l102 449h242l-273 -492z" />
<glyph unicode="&#x201a;" horiz-adv-x="581" d="M117 -166l102 449h242l-273 -492z" />
<glyph unicode="&#x201c;" horiz-adv-x="954" d="M121 1038l272 492l72 -43l-103 -449h-241zM494 1038l272 492l72 -43l-103 -449h-241z" />
<glyph unicode="&#x201d;" horiz-adv-x="954" d="M117 1038l102 449h242l-273 -492zM489 1038l103 449h242l-273 -492z" />
<glyph unicode="&#x201e;" horiz-adv-x="954" d="M117 -166l102 449h242l-273 -492zM489 -166l103 449h242l-273 -492z" />
<glyph unicode="&#x2022;" horiz-adv-x="942" d="M131 586q0 97 18 168.5t47 113t74.5 66.5t92 33t108.5 8q61 0 108.5 -8.5t93.5 -34t75.5 -68t48 -114t18.5 -168.5t-18 -168.5t-47 -113t-74.5 -66.5t-92 -33t-108.5 -8q-61 0 -108.5 8.5t-93.5 34t-75.5 68t-48 114t-18.5 168.5z" />
<glyph unicode="&#x2026;" horiz-adv-x="1566" d="M131 0v238h238v-238h-238zM666 0v238h239v-238h-239zM1200 0v238h240v-238h-240z" />
<glyph unicode="&#x202f;" horiz-adv-x="387" />
<glyph unicode="&#x2039;" horiz-adv-x="630" d="M102 469l246 422h150l-226 -422l226 -418h-150z" />
<glyph unicode="&#x203a;" horiz-adv-x="630" d="M133 51l225 422l-225 418h150l245 -418l-245 -422h-150z" />
<glyph unicode="&#x205f;" horiz-adv-x="484" />
<glyph unicode="&#x20ac;" horiz-adv-x="1245" d="M41 485v136h205q0 24 -1 72t-1 88t2 75h-205v135h217q19 152 65 257t115 161.5t147 80t177 23.5q126 0 234.5 -18t162.5 -39l-31 -129q-176 45 -370 45q-153 0 -238 -89t-108 -292h477v-135h-488v-235h488v-136h-473q26 -192 110 -279t236 -87q205 0 366 45l31 -129 q-170 -58 -401 -58q-79 0 -142.5 13.5t-124 48t-105 91t-77.5 146t-49 209.5h-219z" />
<glyph unicode="&#x2122;" horiz-adv-x="1800" d="M57 1384v103h682v-103h-282v-790h-119v790h-281zM879 594v893h172l225 -709l225 709h180v-893h-116v774l-256 -778h-86l-240 778v-774h-104z" />
<glyph unicode="&#x25fc;" horiz-adv-x="952" d="M0 0v952h952v-952h-952z" />
<glyph unicode="&#xfb03;" horiz-adv-x="1853" d="M53 817v135h170v154q0 65 9 109t32.5 82t69 65t113.5 50t171 44l29 -135q-65 -14 -108 -25.5t-75 -26.5t-49 -28.5t-27 -36.5t-12.5 -46t-2.5 -60v-146h522v207q0 56 9.5 97t35 79t69 65t112.5 51.5t164.5 43t225.5 35.5l17 -141q-135 -18 -221.5 -35.5t-140.5 -35.5 t-80 -44.5t-34 -52.5t-8 -70v-199h664v-952h-149v817h-515v-817h-149v817h-522v-817h-150v817h-170z" />
<glyph unicode="&#xfb04;" horiz-adv-x="1853" d="M53 817v135h170v154q0 65 9 109t32.5 82t69 65t113.5 50t171 44l29 -135q-65 -14 -108 -25.5t-75 -26.5t-49 -28.5t-27 -36.5t-12.5 -46t-2.5 -60v-146h522v230q0 81 15 133t57.5 94.5t114 70.5t188.5 52l28 -135q-86 -18 -135 -35t-76.5 -44t-35 -58t-7.5 -86v-222h256 v-135h-256v-817h-149v817h-522v-817h-150v817h-170zM1559 0v1528h149v-1528h-149z" />
</font>
</defs>
</svg>
