<?xml version="1.0" standalone="no"?>
<!DOCTYPE svg PUBLIC "-//W3C//DTD SVG 1.1//EN" "http://www.w3.org/Graphics/SVG/1.1/DTD/svg11.dtd" >
<svg xmlns="http://www.w3.org/2000/svg">
<metadata></metadata>
<defs>
<font id="netto_otlight" horiz-adv-x="1064" >
<font-face units-per-em="2048" ascent="1591" descent="-457" />
<missing-glyph horiz-adv-x="512" />
<glyph unicode="&#xfb01;" horiz-adv-x="980" d="M158 20v1199q0 98 69.5 167.5t167.5 69.5q47 0 109 -10q37 -7 37 -39q0 -15 -12 -25t-27 -10q-12 0 -46 5t-61 5q-65 0 -111 -46t-46 -111v-213h264q17 0 28 -10t11 -27t-11 -27t-28 -10h-264v-918q0 -17 -12 -28.5t-29 -11.5q-15 0 -27 11.5t-12 28.5zM698 1393 q0 26 19 44.5t45 18.5t43.5 -18.5t17.5 -44.5q0 -27 -17.5 -45.5t-43.5 -18.5t-45 19t-19 45zM721 20v973q0 15 12 27t29 12q15 0 27 -12t12 -27v-973q0 -17 -12 -28.5t-27 -11.5q-17 0 -29 11.5t-12 28.5z" />
<glyph unicode="&#xfb02;" horiz-adv-x="989" d="M158 20v1199q0 98 69.5 167.5t167.5 69.5q47 0 109 -10q37 -7 37 -39q0 -15 -12 -25t-27 -10q-12 0 -46 5t-61 5q-65 0 -111 -46t-46 -111v-213h264q17 0 28 -10t11 -27t-11 -27t-28 -10h-264v-918q0 -17 -12 -28.5t-29 -11.5q-15 0 -27 11.5t-12 28.5zM741 20v1395 q0 17 12 29t27 12q17 0 29 -12t12 -29v-1395q0 -17 -12 -28.5t-29 -11.5q-15 0 -27 11.5t-12 28.5z" />
<glyph horiz-adv-x="0" />
<glyph horiz-adv-x="0" />
<glyph horiz-adv-x="682" />
<glyph unicode="&#xd;" horiz-adv-x="512" />
<glyph unicode=" "  horiz-adv-x="512" />
<glyph unicode="&#x09;" horiz-adv-x="512" />
<glyph unicode="&#xa0;" horiz-adv-x="512" />
<glyph unicode="!" horiz-adv-x="718" d="M293 47q0 27 19 46.5t46 19.5q28 0 48 -20t20 -46q0 -28 -20 -47.5t-48 -19.5t-46.5 19.5t-18.5 47.5zM319 408v1007q0 17 12 29t27 12q17 0 29 -12t12 -29v-1007q0 -17 -12 -29t-29 -12q-15 0 -27 12t-12 29z" />
<glyph unicode="&#x22;" horiz-adv-x="722" d="M203 1118v297q0 17 12 29t27 12q17 0 29 -12t12 -29v-297q0 -17 -12 -28t-29 -11q-16 0 -27.5 11t-11.5 28zM440 1118v297q0 17 12 29t29 12q15 0 27 -12t12 -29v-297q0 -17 -11.5 -28t-27.5 -11q-17 0 -29 11t-12 28z" />
<glyph unicode="#" d="M25 469q0 17 10.5 28t27.5 11h193l61 422h-180q-17 0 -29 10t-12 25q0 17 11 28t28 11h195l61 417q7 35 41 35q12 0 24.5 -12t12.5 -27q0 -8 -2 -20l-57 -393h329l62 417q7 35 41 35q12 0 24.5 -12t12.5 -27q0 -8 -2 -20l-58 -393h178q18 0 29.5 -10t11.5 -27t-11 -27 t-28 -10h-192l-62 -422h181q18 0 29.5 -10t11.5 -27t-11 -27t-28 -10h-195l-61 -420q-2 -14 -12 -24t-27 -10q-39 0 -39 38q0 11 4 35l55 381h-329l-62 -420q-2 -14 -12 -24t-27 -10q-39 0 -39 38q0 11 4 35l56 381h-178q-17 0 -29 10t-12 25zM336 508h330l61 422h-330z" />
<glyph unicode="$" d="M145 92q0 15 11.5 28t27.5 13q5 0 17 -4q94 -37 167 -55.5t150 -18.5q129 0 223.5 80.5t94.5 218.5q0 194 -230 308l-223 112q-238 119 -238 350q0 130 98 225t249 105v227q0 15 11.5 27t26.5 12q17 0 29 -12t12 -27v-227q138 -5 293 -63q25 -9 25 -39q0 -16 -10.5 -26.5 t-28.5 -10.5q-8 0 -14 2q-170 63 -308 63q-142 0 -221.5 -76.5t-79.5 -179.5q0 -98 48 -162.5t143 -113.5l223 -115q63 -33 106 -63t85.5 -75t64 -105.5t21.5 -135.5q0 -82 -28.5 -150t-77.5 -113t-110.5 -72.5t-130.5 -34.5v-230q0 -15 -12 -27t-29 -12q-15 0 -26.5 12 t-11.5 27v226q-163 6 -324 77q-23 10 -23 35z" />
<glyph unicode="%" horiz-adv-x="1777" d="M168 999v199q0 116 71 187t187 71t187 -71t71 -187v-199q0 -115 -71 -186.5t-187 -71.5t-187 71.5t-71 186.5zM240 993q0 -86 50 -136t136 -50t136 50t50 136v211q0 86 -50 136.5t-136 50.5t-136 -50.5t-50 -136.5v-211zM367 14q0 11 8 23l971 1401q11 18 28 18 q14 0 24.5 -10t10.5 -27q0 -8 -8 -20l-973 -1403q-10 -16 -29 -16q-15 0 -23.5 9.5t-8.5 24.5zM1094 238v198q0 116 71 187t187 71q117 0 187.5 -71t70.5 -187v-198q0 -116 -70.5 -187t-187.5 -71q-116 0 -187 71t-71 187zM1165 231q0 -86 50.5 -136t136.5 -50 q87 0 136.5 49.5t49.5 136.5v211q0 87 -49.5 137t-136.5 50q-86 0 -136.5 -50.5t-50.5 -136.5v-211z" />
<glyph unicode="&#x26;" horiz-adv-x="1343" d="M158 348q0 116 59 211q76 122 256 232l-94 108q-107 125 -107 254q0 126 85.5 214.5t205.5 88.5q122 0 207.5 -88.5t85.5 -214.5q0 -15 -12 -27t-29 -12q-15 0 -27 12t-12 27q0 93 -63 161t-150 68t-149 -68t-62 -161q0 -102 88 -203l514 -596q33 39 83.5 103t86.5 109 l35 46q14 17 31 17q16 0 27.5 -11.5t11.5 -29.5q0 -12 -8 -23q-98 -131 -213 -272l213 -248q10 -13 10 -25q0 -15 -12 -27.5t-29 -12.5t-31 14l-205 237q-49 -56 -88 -93.5t-94.5 -77.5t-120.5 -60t-139 -20q-147 0 -250.5 107.5t-103.5 260.5zM238 348q0 -121 80.5 -208 t193.5 -87q60 0 112 16t101 52.5t86 73t92 98.5l-379 438q-165 -95 -239 -211q-47 -74 -47 -172z" />
<glyph unicode="'" horiz-adv-x="485" d="M203 1118v297q0 17 12 29t27 12q17 0 29 -12t12 -29v-297q0 -17 -12 -28t-29 -11q-16 0 -27.5 11t-11.5 28z" />
<glyph unicode="(" horiz-adv-x="559" d="M123 649q0 497 215 924q11 22 37 22q18 0 28.5 -12.5t10.5 -28.5q0 -4 -4 -16q-207 -417 -207 -889q0 -481 207 -889q4 -12 4 -18q0 -18 -12.5 -28.5t-28.5 -10.5q-25 0 -35 21q-103 202 -159 440.5t-56 484.5z" />
<glyph unicode=")" horiz-adv-x="571" d="M158 -258q0 6 4 18q207 408 207 889q0 472 -207 889q-4 12 -4 16q0 16 10.5 28.5t28.5 12.5q25 0 36 -22q216 -429 216 -924q0 -245 -56 -483.5t-160 -441.5q-11 -21 -34 -21q-16 0 -28.5 10.5t-12.5 28.5z" />
<glyph unicode="*" horiz-adv-x="849" d="M113 1219q0 15 9 25.5t25 10.5q9 0 13 -2l229 -75v241q0 15 11 26t26 11q14 0 24.5 -11t10.5 -26v-241l229 75q4 2 15 2q13 0 22.5 -10t9.5 -26q0 -26 -24 -33l-230 -76l142 -197q6 -9 6 -20q0 -13 -10.5 -24t-24.5 -11q-18 0 -29 14l-141 197l-143 -197q-8 -14 -29 -14 q-14 0 -24.5 10t-10.5 25q0 11 6 20l142 197l-230 76q-24 7 -24 33z" />
<glyph unicode="+" d="M27 506q0 17 11.5 28t27.5 11h428v448q0 16 10.5 27.5t27.5 11.5t29 -12t12 -27v-448h424q17 0 29 -11t12 -28t-11.5 -27t-29.5 -10h-424v-449q0 -17 -12 -28.5t-29 -11.5t-27.5 11.5t-10.5 28.5v449h-428q-16 0 -27.5 10t-11.5 27z" />
<glyph unicode="," horiz-adv-x="411" d="M66 -211q0 8 2 12l98 291q10 27 39 27q16 0 27.5 -11t11.5 -28q0 -10 -2 -14l-99 -291q-10 -27 -39 -27q-15 0 -26.5 12t-11.5 29z" />
<glyph unicode="-" horiz-adv-x="813" d="M135 604q0 17 11.5 28t27.5 11h465q15 0 27 -12t12 -27t-12 -26t-27 -11h-465q-16 0 -27.5 10t-11.5 27z" />
<glyph unicode="." horiz-adv-x="411" d="M139 47q0 27 19.5 46.5t46.5 19.5t47 -19.5t20 -46.5q0 -28 -19.5 -47.5t-47.5 -19.5t-47 19.5t-19 47.5z" />
<glyph unicode="/" horiz-adv-x="1126" d="M248 20q0 9 2 15l553 1397q9 24 39 24q15 0 26 -11.5t11 -29.5q0 -8 -2 -14l-553 -1395q-9 -24 -37 -24q-16 0 -27.5 10t-11.5 28z" />
<glyph unicode="0" horiz-adv-x="1097" d="M145 383v670q0 182 111 293q110 110 293 110t293 -110q110 -107 110 -293v-670q0 -183 -110 -293t-293 -110t-293 110q-111 114 -111 293zM225 377q0 -150 87 -237t237 -87t236.5 87t86.5 237v682q0 150 -86.5 236.5t-236.5 86.5q-151 0 -237.5 -87t-86.5 -236v-682z" />
<glyph unicode="1" horiz-adv-x="673" d="M45 1229q0 21 21 33l323 186q11 8 27 8q22 0 37.5 -15.5t15.5 -37.5v-1383q0 -17 -12 -28.5t-29 -11.5q-15 0 -27 11.5t-12 28.5v1340l-285 -166q-12 -6 -20 -6q-15 0 -27 11.5t-12 29.5z" />
<glyph unicode="2" horiz-adv-x="911" d="M68 53q0 18 10 31l510 717q108 154 108 295q0 131 -75 209.5t-203 78.5q-152 0 -273 -67q-6 -4 -18 -4q-16 0 -27.5 9.5t-11.5 27.5q0 24 21 34q83 43 153.5 57.5t155.5 14.5q162 0 260 -98q98 -103 98 -262q0 -157 -129 -340l-483 -680h586q17 0 27.5 -11t10.5 -28 q0 -15 -10.5 -26t-27.5 -11h-629q-22 0 -37.5 15.5t-15.5 37.5z" />
<glyph unicode="3" horiz-adv-x="944" d="M68 90q0 14 11.5 25.5t26.5 11.5q7 0 19 -4q134 -70 287 -70q147 0 232 89.5t85 240.5q0 140 -98 235q-97 91 -240 91h-41q-16 0 -27.5 10t-11.5 26q0 17 11.5 27t27.5 10h27q134 0 221 84q90 84 90 211q0 142 -73 223.5t-203 81.5q-77 0 -139 -14.5t-136 -54.5 q-6 -4 -16 -4q-14 0 -26.5 11.5t-12.5 27.5q0 21 20 32q81 46 151 61t159 15q166 0 260 -102q96 -104 96 -277q0 -155 -115 -264q-43 -40 -88 -63q63 -26 121 -78q123 -111 123 -289q0 -187 -113 -297q-106 -106 -284 -106q-184 0 -324 73q-20 10 -20 37z" />
<glyph unicode="4" horiz-adv-x="892" d="M55 408q0 8 2 16l353 1006q10 26 36 26q19 0 30.5 -16t4.5 -37l-338 -971h437v336q0 17 10.5 28t27.5 11t29 -11t12 -28v-336h185q16 0 27.5 -11t11.5 -28q0 -15 -12 -26t-27 -11h-185v-336q0 -17 -12 -28.5t-29 -11.5t-27.5 11.5t-10.5 28.5v336h-471q-22 0 -38 14.5 t-16 37.5z" />
<glyph unicode="5" horiz-adv-x="985" d="M135 86q0 16 11 27.5t28 11.5q13 0 19 -4q130 -68 286 -68q119 0 205 88t86 209v135q0 122 -85.5 209.5t-205.5 87.5q-126 0 -246 -63q-12 -6 -26 -6q-22 0 -36.5 14.5t-14.5 36.5v606q0 28 18.5 47t46.5 19h549q17 0 29 -11t12 -28t-11.5 -27t-29.5 -10h-534v-555 q114 51 243 51q154 0 262.5 -108.5t108.5 -262.5v-135q0 -154 -108.5 -262t-262.5 -108q-182 0 -321 71q-23 13 -23 35z" />
<glyph unicode="6" horiz-adv-x="987" d="M145 350v471q0 295 119 457q129 178 385 178q63 0 125 -12q35 -8 35 -41q0 -16 -12.5 -25.5t-26.5 -9.5q-5 0 -40 7t-81 7q-215 0 -321 -145q-103 -142 -103 -410v-112q52 66 127.5 103.5t163.5 37.5q154 0 262.5 -108.5t108.5 -262.5v-135q0 -154 -108.5 -262 t-262.5 -108t-262.5 108t-108.5 262zM225 344q0 -120 85.5 -205.5t205.5 -85.5t205.5 85.5t85.5 205.5v145q0 121 -85.5 207t-205.5 86t-205.5 -86t-85.5 -207v-145z" />
<glyph unicode="7" horiz-adv-x="854" d="M23 1397q0 17 11.5 28t26.5 11h682q23 0 39.5 -15.5t16.5 -38.5q0 -10 -4 -18l-510 -1358q-10 -26 -39 -26q-15 0 -26 10.5t-11 27.5q0 9 4 17l498 1325h-650q-16 0 -27 10t-11 27z" />
<glyph unicode="8" horiz-adv-x="1038" d="M135 385q0 174 113 293q52 55 119 82q-49 21 -97 69q-102 105 -102 261q0 157 102 262q101 104 248 104q149 0 250 -104q102 -105 102 -262q0 -156 -102 -261q-46 -46 -96 -69q62 -25 119 -82q112 -115 112 -293t-112 -293q-109 -112 -273 -112q-161 0 -270 112 q-113 113 -113 293zM215 385q0 -145 85.5 -238.5t217.5 -93.5q133 0 219 93.5t86 238.5t-86 240.5t-219 95.5q-132 0 -217.5 -95.5t-85.5 -240.5zM248 1090q0 -125 77.5 -210t192.5 -85q117 0 195 85t78 210q0 126 -78 209t-195 83q-116 0 -193 -83t-77 -209z" />
<glyph unicode="9" horiz-adv-x="987" d="M100 950v135q0 154 108.5 262.5t262.5 108.5t262.5 -108.5t108.5 -262.5v-440q0 -316 -132.5 -490.5t-371.5 -174.5q-66 0 -123 14q-35 8 -35 37q0 14 11 25.5t24 11.5q11 0 31 -5q52 -10 92 -10q76 0 139.5 21.5t106.5 57t76 86t51.5 102.5t30.5 112.5t16 110.5t4 102 v76q-52 -66 -127.5 -103.5t-163.5 -37.5q-154 0 -262.5 108t-108.5 262zM180 944q0 -121 85.5 -206t205.5 -85t205.5 85t85.5 206v148q0 120 -85.5 205t-205.5 85t-205.5 -85t-85.5 -205v-148z" />
<glyph unicode=":" horiz-adv-x="411" d="M139 47q0 27 19.5 46.5t46.5 19.5t47 -19.5t20 -46.5q0 -28 -19.5 -47.5t-47.5 -19.5t-47 19.5t-19 47.5zM139 967q0 28 19 46.5t47 18.5t47.5 -18.5t19.5 -46.5t-19.5 -48t-47.5 -20t-47 20t-19 48z" />
<glyph unicode=";" horiz-adv-x="411" d="M66 -211q0 8 2 12l98 291q10 27 39 27q18 0 28.5 -12t10.5 -27q0 -10 -2 -14l-99 -291q-10 -27 -39 -27q-17 0 -27.5 13t-10.5 28zM137 967q0 27 20 46t48 19t46.5 -18.5t18.5 -46.5t-19 -48t-46 -20q-28 0 -48 20t-20 48z" />
<glyph unicode="&#x3c;" d="M117 506q0 35 30 55l740 465q9 6 22 6q15 0 27 -12t12 -27q0 -19 -20 -32l-725 -455l727 -457q18 -12 18 -33q0 -16 -12 -26t-27 -10q-13 0 -22 6l-740 465q-30 20 -30 55z" />
<glyph unicode="=" d="M27 338q0 17 11.5 28t27.5 11h933q17 0 28 -11.5t11 -27.5q0 -15 -11 -26t-28 -11h-933q-16 0 -27.5 10t-11.5 27zM27 674q0 17 11.5 28t27.5 11h933q17 0 28 -11.5t11 -27.5q0 -15 -11 -26t-28 -11h-933q-16 0 -27.5 10t-11.5 27z" />
<glyph unicode="&#x3e;" d="M117 16q0 21 18 33l727 457l-725 455q-20 13 -20 32q0 15 12 27t27 12q13 0 22 -6l740 -465q30 -20 30 -55t-30 -55l-740 -465q-9 -6 -22 -6q-15 0 -27 10t-12 26z" />
<glyph unicode="?" horiz-adv-x="897" d="M135 1358q0 11 7.5 22t17.5 15q134 61 280 61q141 0 242.5 -104.5t101.5 -251.5q0 -81 -31 -152t-91 -117l-134 -104q-61 -49 -61 -139v-180q0 -17 -12 -29t-29 -12t-28 12t-11 29v176q0 131 88 198l135 105q46 36 70.5 93t24.5 120q0 116 -78 199t-187 83t-247 -57 q-12 -4 -19 -4q-18 0 -28.5 10.5t-10.5 26.5zM360 47q0 27 19.5 46.5t46.5 19.5t46.5 -19.5t19.5 -46.5q0 -28 -19 -47.5t-47 -19.5t-47 19.5t-19 47.5z" />
<glyph unicode="@" horiz-adv-x="1470" d="M270 154v825q0 130 64 240t174 173.5t240 63.5q97 0 184.5 -37.5t151.5 -101.5t101.5 -152.5t37.5 -185.5v-612q0 -46 -41 -62q-105 -43 -236 -43q-126 0 -215.5 88.5t-89.5 214.5t89.5 215.5t215.5 89.5h197v115q0 164 -115.5 280.5t-279.5 116.5t-281 -116.5 t-117 -280.5v-838q0 -147 96 -260q93 -110 238 -129q15 -1 25 -12t10 -25q0 -17 -11.5 -27.5t-29.5 -10.5q-17 0 -53 8q-65 15 -129 56t-109 95q-117 132 -117 312zM721 565q0 -95 65.5 -162t159.5 -67q101 0 197 35v424h-197q-94 0 -159.5 -66.5t-65.5 -163.5z" />
<glyph unicode="A" horiz-adv-x="1071" d="M33 20q0 7 2 13l450 1386q5 15 20 26t32 11q36 0 49 -37l450 -1386q2 -6 2 -15q0 -14 -11 -26t-28 -12q-29 0 -38 28q-60 187 -136 418h-579l-135 -418q-9 -28 -39 -28q-15 0 -27 11.5t-12 28.5zM272 504h527l-262 813z" />
<glyph unicode="B" horiz-adv-x="1058" d="M168 66v1304q0 28 18.5 47t46.5 19h304q167 0 267.5 -99.5t100.5 -265.5q0 -158 -119 -262q-42 -36 -98 -59q78 -30 131 -78q127 -115 127 -281q0 -179 -108 -285t-289 -106h-316q-28 0 -46.5 19t-18.5 47zM250 78h299q147 0 231 84q84 81 84 229q0 63 -26.5 121.5 t-73.5 101.5q-107 93 -250 93h-264v-629zM250 784h252q135 0 228 83t93 204q0 134 -75.5 210.5t-210.5 76.5h-287v-574z" />
<glyph unicode="C" horiz-adv-x="952" d="M123 442v551q0 209 127 336t336 127q144 0 280 -86q19 -13 19 -35q0 -15 -11 -26t-28 -11q-12 0 -23 7q-116 75 -237 75q-176 0 -278.5 -104.5t-102.5 -282.5v-551q0 -178 102.5 -282.5t278.5 -104.5q116 0 237 78q9 6 21 6q15 0 28 -11t13 -28q0 -21 -19 -34 q-136 -86 -280 -86q-210 0 -336 126q-127 127 -127 336z" />
<glyph unicode="D" horiz-adv-x="1124" d="M168 66v1304q0 28 18.5 47t46.5 19h273q224 0 360 -133q135 -135 135 -359v-452q0 -225 -135 -357q-138 -135 -360 -135h-273q-28 0 -46.5 19t-18.5 47zM250 78h256q191 0 303 112q111 111 111 302v452q0 192 -109 301q-113 113 -305 113h-256v-1280z" />
<glyph unicode="E" horiz-adv-x="960" d="M168 66v1304q0 28 18.5 47t46.5 19h596q17 0 28 -11t11 -28t-11 -28t-28 -11h-579v-576h553q17 0 29 -11t12 -28q0 -15 -12 -26.5t-29 -11.5h-553v-627h594q16 0 27.5 -11t11.5 -28q0 -15 -12 -27t-27 -12h-611q-28 0 -46.5 19t-18.5 47z" />
<glyph unicode="F" horiz-adv-x="894" d="M168 20v1350q0 28 18.5 47t46.5 19h588q17 0 29 -11t12 -28t-12 -28t-29 -11h-571v-576h547q16 0 27.5 -11t11.5 -28q0 -15 -11 -26.5t-28 -11.5h-547v-685q0 -17 -12 -28.5t-29 -11.5t-29 11.5t-12 28.5z" />
<glyph unicode="G" horiz-adv-x="1085" d="M123 442v551q0 209 127 336t336 127q146 0 305 -86q18 -9 18 -35q0 -15 -11.5 -26t-29.5 -11q-8 0 -18 5q-138 77 -264 77q-177 0 -279 -103t-102 -280v-559q0 -177 102 -280t279 -103q150 0 295 60v544h-269q-17 0 -28 11t-11 28t11 28t28 11h285q28 0 47 -18.5 t19 -46.5v-566q0 -45 -39 -61q-150 -65 -338 -65q-210 0 -336 126q-127 127 -127 336z" />
<glyph unicode="H" horiz-adv-x="1169" d="M168 20v1395q0 17 12.5 29t28.5 12q17 0 29 -12t12 -29v-631h670v631q0 17 12 29t29 12q15 0 27.5 -12t12.5 -29v-1395q0 -17 -12 -28.5t-28 -11.5q-17 0 -29 11.5t-12 28.5v687h-670v-687q0 -17 -12 -28.5t-29 -11.5q-16 0 -28.5 11.5t-12.5 28.5z" />
<glyph unicode="I" horiz-adv-x="417" d="M168 20v1395q0 17 12.5 29t28.5 12q17 0 29 -12t12 -29v-1395q0 -17 -12 -28.5t-29 -11.5q-16 0 -28.5 11.5t-12.5 28.5z" />
<glyph unicode="J" horiz-adv-x="708" d="M55 31q0 15 10.5 27t28.5 12q7 0 47 -7.5t74 -7.5q105 0 179.5 77.5t74.5 184.5v1098q0 17 12 29t29 12t29 -12t12 -29v-1098q0 -139 -99 -238t-237 -99q-50 0 -125 14q-35 6 -35 37z" />
<glyph unicode="K" horiz-adv-x="980" d="M168 20v1395q0 17 12.5 29t28.5 12q17 0 29 -12t12 -29v-631l604 660q12 12 29 12q16 0 27.5 -11.5t11.5 -29.5q0 -15 -11 -26l-594 -646l621 -696q10 -10 10 -27q0 -16 -10.5 -28t-28.5 -12q-16 0 -30 14l-629 708v-682q0 -17 -12 -28.5t-29 -11.5q-16 0 -28.5 11.5 t-12.5 28.5z" />
<glyph unicode="L" horiz-adv-x="915" d="M168 66v1349q0 17 12.5 29t28.5 12q17 0 29 -12t12 -29v-1337h594q16 0 27.5 -11t11.5 -28q0 -15 -12 -27t-27 -12h-611q-28 0 -46.5 19t-18.5 47z" />
<glyph unicode="M" horiz-adv-x="1460" d="M168 20v1383q0 22 15.5 37.5t37.5 15.5q30 0 47 -31l463 -952l461 952q14 31 47 31q23 0 38 -15.5t15 -37.5v-1383q0 -17 -12 -28.5t-29 -11.5t-29 11.5t-12 28.5v1258l-432 -885q-12 -28 -47 -28q-37 0 -49 28l-432 885v-1258q0 -17 -12 -28.5t-29 -11.5 q-16 0 -28.5 11.5t-12.5 28.5z" />
<glyph unicode="N" horiz-adv-x="1183" d="M168 20v1383q0 22 15.5 37.5t37.5 15.5q33 0 47 -29l666 -1277v1263q0 19 10.5 31t28.5 12q19 0 31 -12t12 -31v-1380q0 -22 -15.5 -37.5t-37.5 -15.5q-32 0 -48 28l-665 1278v-1266q0 -19 -11.5 -29.5t-29.5 -10.5q-16 0 -28.5 10.5t-12.5 29.5z" />
<glyph unicode="O" horiz-adv-x="1120" d="M123 418v602q0 198 119 317t317 119q199 0 318 -119q120 -123 120 -317v-602q0 -198 -120 -318q-117 -120 -318 -120q-197 0 -317 120q-119 119 -119 318zM205 416q0 -166 95 -263.5t259 -97.5q165 0 260.5 97.5t95.5 263.5v606q0 165 -95.5 261.5t-260.5 96.5 q-164 0 -259 -96.5t-95 -261.5v-606z" />
<glyph unicode="P" horiz-adv-x="1024" d="M168 20v1350q0 28 18.5 47t46.5 19h310q183 0 293 -113q110 -110 110 -295q0 -179 -106 -285q-111 -108 -297 -108h-293v-615q0 -17 -12 -28.5t-29 -11.5q-16 0 -28.5 11.5t-12.5 28.5zM250 713h293q151 0 239 88q82 82 82 227q0 153 -86 242q-85 88 -235 88h-293v-645z " />
<glyph unicode="Q" horiz-adv-x="1128" d="M123 418v602q0 196 119 315q121 121 317 121q199 0 318 -119q120 -123 120 -317v-602q0 -198 -120 -318q-74 -74 -183 -100l477 -131q31 -7 31 -37q0 -15 -11 -28t-26 -13q-10 0 -16 2l-725 203q-109 31 -182 104q-119 119 -119 318zM205 418q0 -166 95 -264.5t259 -98.5 q165 0 260.5 98t95.5 265v602q0 165 -95.5 262.5t-260.5 97.5q-164 0 -259 -97.5t-95 -262.5v-602z" />
<glyph unicode="R" horiz-adv-x="1042" d="M168 20v1350q0 28 18.5 47t46.5 19h351q171 0 276 -105q109 -109 109 -287q0 -170 -107 -274q-88 -88 -231 -100l340 -631q4 -12 4 -19q0 -14 -11.5 -27t-27.5 -13q-25 0 -35 20l-360 668h-291v-648q0 -17 -12 -28.5t-29 -11.5q-16 0 -28.5 11.5t-12.5 28.5zM250 745h334 q144 0 225 78q80 80 80 221q0 148 -84 232q-79 82 -221 82h-334v-613z" />
<glyph unicode="S" horiz-adv-x="923" d="M78 92q0 15 11.5 28t27.5 13q4 0 16 -4q191 -74 318 -74q129 0 223 80.5t94 218.5q0 194 -229 308l-224 112q-237 118 -237 350q0 138 109.5 235t273.5 97q168 0 336 -65q24 -9 24 -39q0 -16 -10.5 -26.5t-28.5 -10.5q-8 0 -14 2q-170 63 -307 63q-142 0 -221.5 -76.5 t-79.5 -179.5q0 -98 47.5 -162.5t142.5 -113.5l223 -115q63 -33 106 -63t85.5 -75t64 -105.5t21.5 -135.5q0 -89 -34 -161.5t-90.5 -118t-127 -70t-147.5 -24.5q-177 0 -351 77q-22 9 -22 35z" />
<glyph unicode="T" horiz-adv-x="919" d="M10 1397q0 17 11.5 28t27.5 11h821q17 0 28 -11t11 -28t-11 -28t-28 -11h-370v-1338q0 -17 -12.5 -28.5t-28.5 -11.5q-17 0 -29 11.5t-12 28.5v1338h-369q-16 0 -27.5 11t-11.5 28z" />
<glyph unicode="U" horiz-adv-x="1177" d="M145 424v991q0 17 12.5 29t28.5 12q17 0 29 -12t12 -29v-993q0 -169 97 -268t264 -99q168 0 265 99t97 268v993q0 17 12 29t29 12q16 0 28.5 -12t12.5 -29v-991q0 -201 -121 -322q-122 -122 -323 -122q-200 0 -322 122q-121 118 -121 322z" />
<glyph unicode="V" horiz-adv-x="1011" d="M23 1417q0 15 9.5 27t28.5 12q15 0 26.5 -8.5t14.5 -20.5l404 -1304l405 1304q3 12 14.5 20.5t26.5 8.5q19 0 29 -12t10 -27q0 -8 -4 -20l-432 -1381q-9 -36 -49 -36q-39 0 -51 36l-428 1381q-4 12 -4 20z" />
<glyph unicode="W" horiz-adv-x="1521" d="M33 1417q0 16 10 27.5t29 11.5q34 0 41 -29l303 -1292l293 1282q4 17 19 28t32 11q18 0 33.5 -11.5t19.5 -29.5l293 -1280l303 1292q7 29 41 29q19 0 29 -11.5t10 -27.5q0 -4 -4 -20l-328 -1379q-4 -17 -19 -27.5t-34 -10.5q-18 0 -32.5 11t-18.5 29l-293 1289 l-293 -1291q-10 -38 -51 -38q-18 0 -32 11t-19 29l-328 1377q-4 16 -4 20z" />
<glyph unicode="X" horiz-adv-x="985" d="M23 20q0 12 6 21l417 682l-411 672q-6 12 -6 22q0 15 12 27t29 12q22 0 34 -18l388 -639l389 639q12 18 34 18q15 0 27 -12t12 -29q0 -12 -4 -20l-411 -672l417 -682q7 -10 7 -21q0 -16 -11.5 -28t-29.5 -12q-22 0 -35 20l-395 647l-394 -647q-11 -20 -37 -20 q-15 0 -26.5 11.5t-11.5 28.5z" />
<glyph unicode="Y" horiz-adv-x="944" d="M23 1415q0 16 10 28.5t28 12.5q27 0 37 -20l375 -699l373 699q10 20 37 20q16 0 27.5 -11t11.5 -28q0 -12 -4 -20l-406 -750v-627q0 -17 -12 -28.5t-27 -11.5q-17 0 -29 11.5t-12 28.5v627l-405 750q-4 8 -4 18z" />
<glyph unicode="Z" horiz-adv-x="950" d="M45 53q0 11 8 27l748 1278h-709q-17 0 -29 11t-12 28t12 28t29 11h754q22 0 37.5 -15.5t15.5 -38.5q0 -13 -8 -26l-750 -1278h725q16 0 27.5 -11t11.5 -28q0 -15 -12 -27t-27 -12h-768q-22 0 -37.5 15.5t-15.5 37.5z" />
<glyph unicode="[" horiz-adv-x="659" d="M145 -258v1812q0 17 11 29t28 12h279q15 0 27 -10.5t12 -25.5t-12 -27t-27 -12h-238v-1741h238q16 0 27.5 -10t11.5 -27t-11.5 -28t-27.5 -11h-279q-17 0 -28 11t-11 28z" />
<glyph unicode="\" horiz-adv-x="1126" d="M248 1415q0 18 11 29.5t26 11.5q30 0 39 -24l553 -1397q2 -6 2 -15q0 -18 -11.5 -28t-27.5 -10q-28 0 -37 24l-553 1395q-2 6 -2 14z" />
<glyph unicode="]" horiz-adv-x="669" d="M168 -258q0 17 11.5 27t27.5 10h237v1741h-237q-15 0 -27 12t-12 27t12 25.5t27 10.5h278q17 0 28 -12t11 -29v-1812q0 -17 -11 -28t-28 -11h-278q-16 0 -27.5 11t-11.5 28z" />
<glyph unicode="^" horiz-adv-x="1024" d="M100 834q0 10 6 22l371 582q11 18 33 18q24 0 35 -18l370 -582q7 -14 7 -22q0 -16 -12.5 -27.5t-26.5 -11.5q-21 0 -33 18l-340 535l-338 -535q-12 -18 -33 -18q-16 0 -27.5 12.5t-11.5 26.5z" />
<glyph unicode="_" horiz-adv-x="1069" d="M45 -233q0 16 11.5 26t27.5 10h899q18 0 29.5 -9.5t11.5 -26.5t-12 -28t-29 -11h-899q-16 0 -27.5 11t-11.5 28z" />
<glyph unicode="`" horiz-adv-x="808" d="M258 1417q0 15 11 27t26 12q10 0 22 -6l213 -131q19 -13 19 -33q0 -14 -11 -25.5t-28 -11.5q-9 0 -21 6l-213 129q-18 12 -18 33z" />
<glyph unicode="a" horiz-adv-x="923" d="M90 279q0 137 84 215q90 81 279 81h245v156q0 110 -67.5 168.5t-171.5 58.5q-123 0 -246 -69q-9 -6 -23 -6t-25 10.5t-11 26.5q0 23 20 34q139 78 279 78q139 0 232 -74t93 -206v-660q0 -46 -45 -63q-131 -49 -280 -49q-187 0 -279 83q-84 78 -84 216zM170 279 q0 -109 57 -160q72 -66 226 -66q111 0 245 43v406h-245q-156 0 -226 -64q-57 -51 -57 -159z" />
<glyph unicode="b" horiz-adv-x="968" d="M158 92v1323q0 17 12 29t27 12q17 0 29 -12t12 -29v-469q119 86 264 86q156 0 250 -94t94 -250v-364q0 -156 -94 -250t-250 -94q-167 0 -299 49q-45 17 -45 63zM238 94q128 -41 264 -41q123 0 193.5 71t70.5 193v377q0 123 -70.5 193.5t-193.5 70.5q-155 0 -264 -106 v-758z" />
<glyph unicode="c" horiz-adv-x="802" d="M113 324v364q0 156 94 250t250 94q128 0 256 -59q22 -9 22 -35q0 -15 -11 -26t-28 -11q-4 0 -16 4q-132 53 -223 53q-122 0 -193 -73t-71 -197v-364q0 -123 71 -197t193 -74q111 0 223 56q8 4 16 4q14 0 26.5 -11.5t12.5 -27.5q0 -22 -22 -35q-112 -59 -256 -59 q-156 0 -250 94t-94 250z" />
<glyph unicode="d" horiz-adv-x="958" d="M113 324v364q0 156 94 250t250 94q145 0 264 -86v469q0 17 12 29t29 12q15 0 27 -12t12 -29v-1323q0 -46 -45 -63q-132 -49 -299 -49q-156 0 -250 94t-94 250zM193 317q0 -122 70.5 -193t193.5 -71q136 0 264 41v756q-111 108 -264 108q-123 0 -193.5 -70.5t-70.5 -193.5 v-377z" />
<glyph unicode="e" horiz-adv-x="913" d="M113 324v364q0 156 94 250t250 94t250 -94t94 -250v-123q0 -28 -19 -46.5t-47 -18.5h-542v-176q0 -123 71 -197t193 -74q103 0 248 60q12 4 18 4q14 0 26.5 -11t12.5 -26q0 -26 -25 -37q-142 -63 -280 -63q-156 0 -250 94t-94 250zM193 573h528v121q0 123 -70.5 193.5 t-193.5 70.5t-193.5 -70.5t-70.5 -193.5v-121z" />
<glyph unicode="f" horiz-adv-x="573" d="M158 20v1199q0 98 69.5 167.5t167.5 69.5q47 0 109 -10q37 -7 37 -39q0 -15 -12 -25t-27 -10q-12 0 -46 5t-61 5q-65 0 -111 -46t-46 -111v-213h264q17 0 28 -10t11 -27t-11 -27t-28 -10h-264v-918q0 -17 -12 -28.5t-29 -11.5q-15 0 -27 11.5t-12 28.5z" />
<glyph unicode="g" horiz-adv-x="958" d="M113 324v364q0 160 92 252t252 92q150 0 299 -49q20 -6 32.5 -23t12.5 -38v-1035q0 -155 -94 -249q-95 -95 -250 -95q-170 0 -273 58q-22 13 -22 37q0 17 12 26.5t27 9.5q4 0 16 -4q130 -53 240 -53q122 0 193 73t71 197v179q-119 -86 -264 -86q-160 0 -252 92t-92 252z M193 317q0 -122 70.5 -193t193.5 -71q152 0 264 103v762q-124 40 -264 40q-123 0 -193.5 -70.5t-70.5 -193.5v-377z" />
<glyph unicode="h" horiz-adv-x="991" d="M158 20v1395q0 17 12 29t27 12q17 0 29 -12t12 -29v-471q122 88 264 88q160 0 252 -92t92 -252v-668q0 -17 -12 -28.5t-27 -11.5q-17 0 -29 11.5t-12 28.5v674q0 123 -70.5 193.5t-193.5 70.5q-155 0 -264 -106v-832q0 -17 -12 -28.5t-29 -11.5q-15 0 -27 11.5t-12 28.5z " />
<glyph unicode="i" horiz-adv-x="440" d="M158 1393q0 26 18.5 44.5t44.5 18.5t44 -18.5t18 -44.5t-18 -45t-44 -19t-44.5 19t-18.5 45zM180 20v973q0 15 12 27t29 12q15 0 27 -12t12 -27v-973q0 -17 -12 -28.5t-27 -11.5q-17 0 -29 11.5t-12 28.5z" />
<glyph unicode="j" horiz-adv-x="444" d="M-37 -416q0 34 37 41q93 22 145 96t52 183v1089q0 15 12 27t27 12q17 0 28.5 -12t11.5 -27v-1089q0 -135 -66.5 -226t-184.5 -124q-20 -5 -23 -5q-15 0 -27 11t-12 24zM174 1393q0 26 18 44.5t44 18.5t44.5 -18.5t18.5 -44.5t-18.5 -45t-44.5 -19t-44 19t-18 45z" />
<glyph unicode="k" horiz-adv-x="843" d="M168 20v1395q0 17 12 29t27 12q17 0 29 -12t12 -29v-805l477 412q13 10 25 10q15 0 28 -11.5t13 -27.5q0 -15 -15 -30l-457 -394l474 -522q10 -10 10 -27q0 -16 -10.5 -28t-28.5 -12q-17 0 -31 14l-485 538v-512q0 -17 -12 -28.5t-29 -11.5q-15 0 -27 11.5t-12 28.5z" />
<glyph unicode="l" horiz-adv-x="415" d="M168 20v1395q0 17 12 29t27 12q17 0 29 -12t12 -29v-1395q0 -17 -12 -28.5t-29 -11.5q-15 0 -27 11.5t-12 28.5z" />
<glyph unicode="m" horiz-adv-x="1507" d="M158 20v895q0 46 43 62q146 55 307 55q75 0 142 -25.5t108 -76.5q111 102 282 102q137 0 229.5 -92.5t92.5 -228.5v-691q0 -17 -12 -28.5t-27 -11.5q-17 0 -29 11.5t-12 28.5v697q0 100 -71 170.5t-171 70.5q-137 0 -239 -94v-844q0 -17 -12 -28.5t-29 -11.5t-28 11.5 t-11 28.5v764q0 76 -60 125t-153 49q-148 0 -270 -47v-891q0 -17 -12 -28.5t-29 -11.5q-15 0 -27 11.5t-12 28.5z" />
<glyph unicode="n" horiz-adv-x="991" d="M158 20v902q0 21 12.5 38t32.5 23q149 49 299 49q160 0 252 -92t92 -252v-668q0 -17 -12 -28.5t-27 -11.5q-17 0 -29 11.5t-12 28.5v674q0 123 -70.5 193.5t-193.5 70.5q-143 0 -264 -40v-898q0 -17 -12 -28.5t-29 -11.5q-15 0 -27 11.5t-12 28.5z" />
<glyph unicode="o" horiz-adv-x="952" d="M113 344v324q0 164 100 264t264 100t264 -100q99 -99 99 -264v-324q0 -165 -99 -264q-100 -100 -264 -100t-264 100t-100 264zM193 338q0 -132 76 -208.5t208 -76.5q131 0 207 76.5t76 208.5v336q0 130 -75.5 207t-207.5 77t-208 -76t-76 -208v-336z" />
<glyph unicode="p" horiz-adv-x="968" d="M158 -418v1340q0 21 12.5 38t32.5 23q149 49 299 49q160 0 252 -92t92 -252v-364q0 -156 -94 -250t-250 -94q-145 0 -264 86v-484q0 -15 -12 -27t-29 -12q-15 0 -27 12t-12 27zM238 162q112 -109 264 -109q123 0 193.5 71t70.5 193v377q0 123 -70.5 193.5t-193.5 70.5 q-140 0 -264 -40v-756z" />
<glyph unicode="q" horiz-adv-x="958" d="M113 324v364q0 158 92 250q94 94 252 94q147 0 299 -49q20 -6 32.5 -23t12.5 -38v-1340q0 -15 -12 -27t-27 -12q-17 0 -29 12t-12 27v484q-119 -86 -264 -86q-156 0 -250 94t-94 250zM193 317q0 -122 70.5 -193t193.5 -71q146 0 264 109v756q-124 40 -264 40 q-123 0 -193.5 -70.5t-70.5 -193.5v-377z" />
<glyph unicode="r" horiz-adv-x="600" d="M158 20v754q0 117 68 187.5t169 70.5q77 0 140 -14q32 -7 32 -41q0 -13 -11.5 -24t-25.5 -11q-8 0 -47 8t-88 8q-67 0 -112 -47.5t-45 -130.5v-760q0 -17 -12 -28.5t-29 -11.5q-15 0 -27 11.5t-12 28.5z" />
<glyph unicode="s" horiz-adv-x="782" d="M100 70q0 15 11.5 28t27.5 13q2 0 17 -5q127 -55 225 -55q95 0 159 52t64 141q0 78 -38 124t-122 87l-174 86q-82 41 -126 94.5t-44 144.5q0 107 86 179.5t201 72.5q128 0 254 -49q25 -9 25 -37q0 -16 -11.5 -27.5t-29.5 -11.5q-11 0 -19 4q-113 47 -219 47 q-78 0 -142.5 -48.5t-64.5 -133.5q0 -35 11.5 -63.5t33.5 -48.5t40.5 -31.5t45.5 -24.5l174 -82q90 -42 144.5 -109t54.5 -151q0 -122 -86.5 -204t-216.5 -82q-131 0 -256 55q-25 11 -25 35z" />
<glyph unicode="t" horiz-adv-x="608" d="M158 240v1175q0 17 12 29t27 12q17 0 29 -12t12 -29v-403h264q17 0 28 -10t11 -27t-11 -27t-28 -10h-264v-698q0 -85 44 -136t113 -51q19 0 60 5t49 5q15 0 26 -10t11 -26q0 -30 -33 -37q-62 -10 -113 -10q-106 0 -171.5 70t-65.5 190z" />
<glyph unicode="u" horiz-adv-x="991" d="M145 324v667q0 17 12 29t27 12q17 0 29 -12t12 -29v-674q0 -123 70.5 -193.5t193.5 -70.5q140 0 265 41v897q0 17 12 29t29 12q15 0 27 -12t12 -29v-901q0 -20 -13 -37.5t-33 -23.5q-149 -49 -299 -49q-159 0 -251 92q-93 93 -93 252z" />
<glyph unicode="v" horiz-adv-x="774" d="M33 993q0 15 10.5 27t28.5 12q29 0 39 -26l284 -906l269 904q9 28 36 28q16 0 28.5 -11t12.5 -28q0 -6 -2 -12l-293 -965q-5 -15 -18.5 -25.5t-30.5 -10.5q-18 0 -32 10.5t-19 25.5l-311 965q-2 6 -2 12z" />
<glyph unicode="w" horiz-adv-x="1329" d="M55 995q0 14 11 25.5t28 11.5q12 0 24 -8t15 -20l246 -891l233 880q4 17 19 28t33 11q19 0 32.5 -11t18.5 -28l233 -880l248 891q3 12 14 20t25 8q15 0 27 -10.5t12 -26.5q0 -8 -2 -14l-273 -963q-10 -38 -51 -38q-18 0 -32.5 10.5t-18.5 27.5l-233 877l-234 -877 q-10 -38 -51 -38q-17 0 -31 10.5t-18 27.5l-273 963q-2 6 -2 14z" />
<glyph unicode="x" horiz-adv-x="798" d="M55 20q0 12 6 21l293 471l-286 459q-7 14 -7 22q0 14 11.5 26.5t27.5 12.5q23 0 35 -18l264 -428l265 428q12 18 34 18q16 0 27.5 -11t11.5 -28q0 -10 -6 -22l-287 -459l293 -471q6 -9 6 -21q0 -15 -10.5 -27.5t-27.5 -12.5q-23 0 -35 18l-271 440l-270 -440 q-12 -18 -35 -18q-15 0 -27 11.5t-12 28.5z" />
<glyph unicode="y" horiz-adv-x="815" d="M45 -420q0 15 10 25.5t27 11.5q88 5 145 39q81 45 111 145l55 185l-344 993q-2 6 -2 14q0 15 10.5 27t28.5 12q29 0 39 -26l307 -908l273 906q9 28 36 28q16 0 28.5 -10.5t12.5 -28.5q0 -6 -2 -12l-366 -1202q-32 -106 -123 -171t-207 -65q-17 0 -28 10t-11 27z" />
<glyph unicode="z" horiz-adv-x="823" d="M68 53q0 18 8 29l577 854h-540q-18 0 -28.5 10.5t-10.5 28.5q0 17 11.5 27t29.5 10h581q22 0 38 -15t16 -36q0 -16 -11 -31l-577 -854h555q16 0 27.5 -11t11.5 -28q0 -15 -12 -26t-27 -11h-596q-22 0 -37.5 15.5t-15.5 37.5z" />
<glyph unicode="{" horiz-adv-x="763" d="M113 649q0 14 9.5 26t24.5 13q81 9 135 70t54 143v428q0 110 79 188t189 78q15 0 26 -11t11 -28q0 -15 -11.5 -24.5t-27.5 -9.5q-76 0 -131 -58t-55 -135v-428q0 -81 -41 -148t-119 -104q78 -39 119 -106t41 -148v-428q0 -77 55 -133.5t131 -56.5q16 0 27.5 -10t11.5 -27 t-11.5 -27t-27.5 -10q-110 0 -188 77t-78 187v428q0 81 -53.5 141t-135.5 72q-15 3 -24.5 14.5t-9.5 26.5z" />
<glyph unicode="|" horiz-adv-x="620" d="M270 -418v1972q0 17 12 29t27 12q17 0 29 -12t12 -29v-1972q0 -15 -12 -27t-29 -12q-15 0 -27 12t-12 27z" />
<glyph unicode="}" horiz-adv-x="763" d="M123 -260q0 17 11.5 27t27.5 10q76 0 131 56.5t55 133.5v428q0 81 41 148t119 106q-78 37 -119 104t-41 148v428q0 77 -55 135t-131 58q-16 0 -27.5 9.5t-11.5 24.5q0 17 11 28t26 11q110 0 189 -78t79 -188v-428q0 -82 53.5 -143t134.5 -70q15 -1 25 -13t10 -26 q0 -15 -10 -26.5t-25 -14.5q-82 -12 -135 -72t-53 -141v-428q0 -110 -78 -187t-188 -77q-16 0 -27.5 10t-11.5 27z" />
<glyph unicode="~" horiz-adv-x="1024" d="M6 469q0 6 4 18q38 70 113.5 111t161.5 41q104 0 247 -84q128 -76 209 -76q64 0 121 31.5t84 83.5q13 20 33 20q16 0 27.5 -11t11.5 -28q0 -11 -6 -20q-36 -69 -110.5 -109t-160.5 -40q-108 0 -249 83q-40 24 -64.5 37t-66 26t-78.5 13q-64 0 -121 -31t-84 -83 q-14 -21 -35 -21q-15 0 -26 11t-11 28z" />
<glyph unicode="&#xa1;" horiz-adv-x="718" d="M293 993q0 28 18.5 47t46.5 19t48 -19t20 -47t-20 -47.5t-48 -19.5t-46.5 19.5t-18.5 47.5zM319 -418v1051q0 15 12 27t27 12q17 0 29 -12t12 -27v-1051q0 -15 -12 -27t-29 -12q-15 0 -27 12t-12 27z" />
<glyph unicode="&#xa2;" d="M248 551v334q0 141 86 227q70 70 178 82v221q0 17 12 29t27 12q17 0 29 -12t12 -29v-219q113 -3 201 -51q22 -13 22 -35q0 -14 -11 -25.5t-28 -11.5q-6 0 -18 4q-96 47 -197 47q-107 0 -170 -63t-63 -170v-346q0 -107 63 -170.5t170 -63.5q97 0 187 43q22 11 28 11 q16 0 27.5 -11t11.5 -28q0 -22 -22 -35q-82 -44 -201 -51v-220q0 -17 -12 -28.5t-29 -11.5q-15 0 -27 11.5t-12 28.5v222q-108 12 -178 82q-86 86 -86 227z" />
<glyph unicode="&#xa3;" d="M156 39q0 17 12 29q82 82 127 188.5t45 224.5v305h-143q-17 0 -29 12t-12 27t12 27t29 12h143v271q0 146 90 233q88 88 234 88q100 0 192 -59q18 -12 18 -33q0 -15 -10.5 -27t-25.5 -12q-14 0 -23 6q-74 49 -151 49q-113 0 -177.5 -63.5t-64.5 -175.5v-277h414 q15 0 26.5 -12t11.5 -27t-11.5 -27t-26.5 -12h-414v-305q0 -220 -143 -403h589q17 0 29 -11t12 -28q0 -16 -11.5 -27.5t-29.5 -11.5h-673q-15 0 -27 10.5t-12 28.5z" />
<glyph unicode="&#xa4;" d="M74 299q0 17 12 29l158 157q-82 101 -82 234q0 130 82 231l-158 160q-12 12 -12 27t11.5 28t27.5 13q15 0 28 -13l160 -159q104 84 231 84q125 0 234 -84l158 159q13 13 28 13t27 -12t12 -29t-10 -27l-160 -160q82 -101 82 -231q0 -133 -82 -234l158 -157q10 -10 10 -29 q0 -16 -11 -27.5t-28 -11.5q-16 0 -28 12l-156 158q-106 -82 -234 -82q-130 0 -231 82l-160 -160q-10 -10 -28 -10q-16 0 -27.5 10.5t-11.5 28.5zM242 719q0 -123 85 -210t205 -87t205.5 87t85.5 210q0 122 -85.5 208.5t-205.5 86.5t-205 -86.5t-85 -208.5z" />
<glyph unicode="&#xa5;" d="M82 1419q0 14 11 25.5t28 11.5q25 0 35 -20l376 -686l375 686q10 20 35 20q14 0 26.5 -11.5t12.5 -27.5q0 -12 -4 -20l-375 -682h248q17 0 28 -11.5t11 -27.5t-11 -27.5t-28 -11.5h-277v-225h275q17 0 29 -11t12 -28t-12 -28t-29 -11h-275v-314q0 -17 -12 -28.5 t-29 -11.5t-28.5 11.5t-11.5 28.5v314h-277q-17 0 -29 11t-12 28t12 28t29 11h277v225h-277q-17 0 -29 11t-12 28q0 15 12 27t29 12h248l-377 682q-4 8 -4 22z" />
<glyph unicode="&#xa6;" horiz-adv-x="620" d="M270 344q0 17 11.5 28t27.5 11q17 0 29 -11t12 -28v-762q0 -15 -12 -27t-29 -12q-15 0 -27 12t-12 27v762zM270 795v759q0 17 12 29t27 12q17 0 29 -12t12 -29v-759q0 -17 -12 -29t-29 -12q-15 0 -27 12t-12 29z" />
<glyph unicode="&#xa7;" d="M195 602q0 168 176 332q-127 84 -127 244q0 120 89.5 201t215.5 81q85 0 144.5 -13t125.5 -44q23 -11 23 -35q0 -16 -11 -27.5t-28 -11.5q-9 0 -17 4q-10 4 -36 15.5t-36 15.5t-33 12t-39.5 11t-41 5.5t-51.5 2.5q-94 0 -163 -59.5t-69 -164.5q0 -42 12.5 -75.5t37 -57 t44 -36.5t50.5 -29l188 -96q109 -56 165 -134t56 -168q0 -165 -178 -331q63 -41 97 -97.5t34 -146.5q0 -120 -90.5 -201.5t-216.5 -81.5q-86 0 -145.5 13t-124.5 45q-23 13 -23 35q0 15 11 26.5t28 11.5q9 0 17 -4q7 -3 35.5 -15.5t37 -15.5t32.5 -11.5t39.5 -10.5t40.5 -5 t52 -3q94 0 163 59.5t69 163.5q0 42 -12.5 75.5t-37 57t-44 37t-50.5 29.5l-188 96q-109 56 -165 133.5t-56 167.5zM268 608q0 -141 189 -239l176 -93q79 73 121.5 149.5t42.5 143.5q0 142 -189 240l-178 92q-78 -72 -120 -149.5t-42 -143.5z" />
<glyph unicode="&#xa8;" horiz-adv-x="808" d="M188 1399q0 25 16 41t40 16t40.5 -16.5t16.5 -40.5q0 -23 -17 -39.5t-40 -16.5t-39.5 16.5t-16.5 39.5zM506 1399q0 25 16 41t39 16q24 0 40.5 -16.5t16.5 -40.5q0 -23 -17 -39.5t-40 -16.5t-39 16.5t-16 39.5z" />
<glyph unicode="&#xa9;" horiz-adv-x="1746" d="M135 719q0 200 99 369.5t268.5 268.5t369.5 99q150 0 287 -58.5t236.5 -157.5t158 -235t58.5 -286t-58.5 -287t-158 -236t-236.5 -157.5t-287 -58.5q-200 0 -369.5 99t-268.5 269t-99 371zM207 719q0 -181 89 -335t242 -243.5t334 -89.5q182 0 335.5 89.5t243 243 t89.5 335.5q0 181 -89.5 334t-243.5 242t-335 89q-135 0 -258 -52.5t-212.5 -142t-142 -212.5t-52.5 -258zM604 618v199q0 133 82 215t215 82q102 0 178 -53q17 -14 17 -31q0 -14 -10 -25.5t-25 -11.5q-12 0 -21 6q-64 43 -139 43q-104 0 -164.5 -60.5t-60.5 -164.5v-199 q0 -104 60.5 -164.5t164.5 -60.5q75 0 139 43q9 6 21 6q13 0 24 -10t11 -24q0 -21 -17 -31q-86 -55 -178 -55q-134 0 -215 81q-82 82 -82 215z" />
<glyph unicode="&#xaa;" horiz-adv-x="712" d="M139 1032q0 28 9.5 56t30.5 56.5t64.5 46t102.5 17.5h133v80q0 41 -37 73t-84 32q-69 0 -133 -37q-9 -6 -20 -6q-35 0 -35 32q0 23 20 33q76 43 164 43q89 0 143 -51t54 -123v-342q0 -41 -37 -51q-89 -29 -168 -29q-49 0 -86.5 11.5t-60 29t-36.5 41t-19 45t-5 43.5z M211 1032q0 -43 29.5 -73.5t105.5 -30.5q58 0 133 22v191h-133q-135 0 -135 -109z" />
<glyph unicode="&#xab;" horiz-adv-x="933" d="M135 512q0 24 12 39l248 346q13 16 33 16q17 0 28 -12.5t11 -28.5q0 -14 -6 -22l-244 -338l244 -336q6 -8 6 -24t-12.5 -27.5t-26.5 -11.5q-20 0 -33 16l-248 346q-12 15 -12 37zM467 512q0 24 12 39l248 346q13 16 33 16q17 0 28 -12.5t11 -28.5q0 -14 -6 -22l-244 -338 l244 -336q6 -8 6 -24t-12.5 -27.5t-26.5 -11.5q-20 0 -33 16l-248 346q-12 15 -12 37z" />
<glyph unicode="&#xac;" d="M63 506q0 17 11.5 28t27.5 11h832q27 0 46 -19.5t19 -46.5v-352q0 -15 -11.5 -27t-26.5 -12q-17 0 -29 12t-12 27v342h-818q-17 0 -28 11t-11 26z" />
<glyph unicode="&#xad;" horiz-adv-x="813" d="M135 604q0 17 11.5 28t27.5 11h465q15 0 27 -12t12 -27t-12 -26t-27 -11h-465q-16 0 -27.5 10t-11.5 27z" />
<glyph unicode="&#xae;" horiz-adv-x="1746" d="M135 719q0 200 99 369.5t268.5 268.5t369.5 99q150 0 287 -58.5t236.5 -157.5t158 -235t58.5 -286t-58.5 -287t-158 -236t-236.5 -157.5t-287 -58.5q-200 0 -369.5 99t-268.5 269t-99 371zM207 719q0 -182 89 -336.5t242.5 -245t333.5 -90.5q181 0 335 90.5t243.5 245 t89.5 336.5q0 181 -89.5 335t-243.5 244.5t-335 90.5q-180 0 -333.5 -90.5t-242.5 -244.5t-89 -335zM668 356v703q0 22 14.5 36.5t34.5 14.5h198q93 0 154 -61.5t61 -157.5q0 -86 -47 -141.5t-127 -67.5l174 -307q7 -11 7 -19q0 -13 -9.5 -23.5t-25.5 -10.5q-22 0 -31 18 l-192 340h-140v-324q0 -15 -11 -24.5t-26 -9.5t-24.5 9.5t-9.5 24.5zM739 748h176q69 0 106.5 37t37.5 106q0 67 -39 109t-105 42h-176v-294z" />
<glyph unicode="&#xaf;" horiz-adv-x="792" d="M199 1397q0 17 11.5 28t27.5 11h317q17 0 29 -11t12 -28t-11.5 -27t-29.5 -10h-317q-16 0 -27.5 10t-11.5 27z" />
<glyph unicode="&#xb0;" horiz-adv-x="747" d="M113 1196q0 107 76.5 183.5t183.5 76.5t184.5 -76.5t77.5 -183.5q0 -108 -77 -185t-185 -77q-107 0 -183.5 76.5t-76.5 185.5zM184 1196q0 -80 55.5 -137.5t133.5 -57.5t134 57.5t56 137.5q0 79 -56 136t-134 57t-133.5 -56.5t-55.5 -136.5z" />
<glyph unicode="&#xb1;" d="M27 37q0 17 11.5 28t27.5 11h931q17 0 29 -11t12 -28t-11.5 -27t-29.5 -10h-931q-16 0 -27.5 10t-11.5 27zM27 588q0 17 11.5 28t27.5 11h428v366q0 16 10.5 27.5t27.5 11.5t29 -12t12 -27v-366h424q17 0 29 -11t12 -28t-11.5 -27t-29.5 -10h-424v-367q0 -17 -12 -29 t-29 -12t-27.5 11.5t-10.5 29.5v367h-428q-16 0 -27.5 10t-11.5 27z" />
<glyph unicode="&#xb2;" horiz-adv-x="710" d="M141 641q0 15 9 27l280 391q64 86 64 170q0 74 -38.5 118t-105.5 44q-85 0 -147 -39q-8 -4 -17 -4q-13 0 -22.5 9t-9.5 23q0 21 16 31q78 45 180 45q97 0 156 -63t59 -164q0 -98 -78 -209l-254 -354h304q15 0 24.5 -10t9.5 -25t-9.5 -24t-24.5 -9h-353q-19 0 -31 12 t-12 31z" />
<glyph unicode="&#xb3;" horiz-adv-x="712" d="M135 659q0 14 9.5 24.5t23.5 10.5q11 0 20 -6q59 -37 154 -37q73 0 118.5 50t45.5 128q0 71 -52 123t-124 52h-23q-15 0 -25 9t-10 23q0 15 10 24t25 9h15q67 0 114 47.5t47 112.5q0 74 -37.5 118t-103.5 44q-82 0 -145 -37q-9 -6 -21 -6q-14 0 -23.5 8t-9.5 24 q0 22 19 31q85 45 180 45t154 -63t59 -164q0 -57 -27.5 -107.5t-74.5 -81.5q56 -31 90.5 -88t34.5 -123q0 -107 -66.5 -175t-169.5 -68t-188 43q-19 9 -19 30z" />
<glyph unicode="&#xb4;" horiz-adv-x="808" d="M258 1288q0 21 18 33l213 129q12 6 21 6q17 0 28 -11.5t11 -25.5q0 -20 -19 -33l-213 -131q-12 -6 -22 -6q-15 0 -26 12t-11 27z" />
<glyph unicode="&#xb5;" horiz-adv-x="1024" d="M180 -418v1411q0 15 12 27t27 12q17 0 29 -12t12 -27v-645q0 -126 71 -210.5t193 -84.5q136 0 264 41v899q0 15 12 27t29 12q15 0 27 -12t12 -27v-901q0 -46 -45 -63q-132 -49 -299 -49q-169 0 -264 131v-529q0 -15 -12 -27t-29 -12q-15 0 -27 12t-12 27z" />
<glyph unicode="&#xb6;" horiz-adv-x="1024" d="M55 1071q0 168 101 264q101 101 264 101h481q28 0 47 -19t19 -47v-1788q0 -15 -12 -27t-29 -12t-29 12t-12 27v1776h-285v-1776q0 -15 -12 -27t-27 -12q-17 0 -30 12t-13 27v1127h-98q-161 0 -264 98q-101 101 -101 264z" />
<glyph unicode="&#xb7;" horiz-adv-x="538" d="M203 606q0 27 19 46.5t46 19.5q28 0 48 -20t20 -46q0 -28 -20 -47.5t-48 -19.5t-46.5 19.5t-18.5 47.5z" />
<glyph unicode="&#xb8;" horiz-adv-x="808" d="M252 -420q0 33 31 37q26 5 55 14.5t63 25.5t56 42.5t22 58.5q0 36 -23 56t-83 49q-17 11 -17 26q0 7 4 24l5 17l18 82q8 37 43 37q15 0 25 -9.5t10 -27.5q0 -6 -2 -14l-19 -86q57 -27 86 -58.5t29 -78.5q0 -144 -209 -215q-45 -13 -55 -13q-39 0 -39 33z" />
<glyph unicode="&#xb9;" horiz-adv-x="729" d="M168 1315q0 22 18 31l181 104q8 6 22 6q18 0 30.5 -12.5t12.5 -30.5v-790q0 -15 -10.5 -26t-24.5 -11q-15 0 -26 11t-11 26v745l-139 -80q-9 -6 -20 -6q-14 0 -23.5 10t-9.5 23z" />
<glyph unicode="&#xba;" horiz-adv-x="794" d="M139 999v199q0 116 71.5 187t186.5 71t186.5 -71t71.5 -187v-199q0 -115 -71.5 -186.5t-186.5 -71.5t-186.5 71.5t-71.5 186.5zM211 993q0 -86 50 -136t136 -50t136.5 50t50.5 136v211q0 86 -50.5 136.5t-136.5 50.5t-136 -50.5t-50 -136.5v-211z" />
<glyph unicode="&#xbb;" horiz-adv-x="933" d="M135 152q0 16 6 24l244 336l-244 338q-6 8 -6 22q0 16 11 28.5t28 12.5q20 0 33 -16l248 -346q12 -15 12 -39q0 -22 -12 -37l-248 -346q-13 -16 -33 -16q-14 0 -26.5 11.5t-12.5 27.5zM467 152q0 16 6 24l244 336l-244 338q-6 8 -6 22q0 16 11 28.5t28 12.5q20 0 33 -16 l247 -346q13 -16 13 -39q0 -21 -13 -37l-247 -346q-13 -16 -33 -16q-14 0 -26.5 11.5t-12.5 27.5z" />
<glyph unicode="&#xbc;" horiz-adv-x="1601" d="M90 1315q0 21 19 31l180 104q8 6 22 6q18 0 30.5 -12.5t12.5 -30.5v-790q0 -15 -10.5 -26t-24.5 -11q-15 0 -25.5 11t-10.5 26v745l-140 -80q-9 -6 -20 -6q-14 0 -23.5 10t-9.5 23zM248 14q0 11 8 23l971 1401q11 18 28 18q14 0 24.5 -10t10.5 -27q0 -8 -8 -20 l-973 -1403q-10 -16 -28 -16q-15 0 -24 9.5t-9 24.5zM997 229q0 5 4 21l195 575q9 25 33 25q14 0 24.5 -9.5t10.5 -25.5q0 -8 -2 -12l-187 -547h215v172q0 14 11 24.5t26 10.5q13 0 24 -10.5t11 -24.5v-172h90q15 0 26 -10t11 -25t-11 -24t-26 -9h-90v-172q0 -15 -10 -25.5 t-27 -10.5t-26 10t-9 26v172h-250q-18 0 -30.5 11t-12.5 30z" />
<glyph unicode="&#xbd;" horiz-adv-x="1714" d="M90 1315q0 21 19 31l180 104q8 6 22 6q18 0 30.5 -12.5t12.5 -30.5v-790q0 -15 -10.5 -26t-24.5 -11q-15 0 -25.5 11t-10.5 26v745l-140 -80q-9 -6 -20 -6q-14 0 -23.5 10t-9.5 23zM231 14q0 9 9 23l970 1401q11 18 29 18q14 0 24.5 -10t10.5 -27q0 -8 -8 -20l-973 -1403 q-10 -16 -29 -16q-15 0 -24 9.5t-9 24.5zM1116 43q0 16 8 27l281 383q63 85 63 170q0 74 -38 117.5t-105 43.5q-85 0 -147 -39q-8 -4 -17 -4q-13 0 -23 9.5t-10 23.5q0 21 17 31q78 45 180 45q97 0 156 -63t59 -164q0 -98 -78 -209l-254 -346h303q15 0 25 -10t10 -25 t-10 -24t-25 -9h-352q-19 0 -31 12t-12 31z" />
<glyph unicode="&#xbe;" horiz-adv-x="1708" d="M106 659q0 14 9.5 24.5t23.5 10.5q12 0 21 -6q59 -37 153 -37q73 0 118.5 50t45.5 128q0 71 -52 123t-124 52h-22q-15 0 -25 9t-10 23q0 15 10 24t25 9h14q67 0 114.5 47.5t47.5 112.5q0 74 -38 118t-104 44q-82 0 -145 -37q-9 -6 -21 -6q-13 0 -22.5 8t-9.5 24 q0 22 18 31q85 45 180 45t154 -63t59 -164q0 -57 -27.5 -107.5t-74.5 -81.5q56 -31 90.5 -88t34.5 -123q0 -107 -66.5 -175t-169.5 -68t-188 43q-19 9 -19 30zM360 14q0 9 9 23l970 1401q11 18 29 18q14 0 24.5 -10t10.5 -27q0 -8 -8 -20l-973 -1403q-10 -16 -29 -16 q-15 0 -24 9.5t-9 24.5zM1112 229q0 5 4 21l195 575q9 25 32 25q14 0 24.5 -9.5t10.5 -25.5q0 -8 -2 -12l-186 -547h215v172q0 14 11 24.5t26 10.5q14 0 24.5 -10.5t10.5 -24.5v-172h90q15 0 26 -10t11 -25t-11 -24t-26 -9h-90v-172q0 -15 -10 -25.5t-27 -10.5t-26 10t-9 26 v172h-250q-18 0 -30.5 11t-12.5 30z" />
<glyph unicode="&#xbf;" horiz-adv-x="897" d="M113 -100q0 80 31.5 151t91.5 117l133 104q61 49 61 140v219q0 17 12 29t29 12t28 -12t11 -29v-215q0 -60 -22.5 -113t-65.5 -86l-135 -104q-46 -36 -70 -92.5t-24 -120.5q0 -116 77.5 -199.5t186.5 -83.5q110 0 248 57q12 4 18 4q18 0 28.5 -10t10.5 -26q0 -11 -7.5 -22 t-17.5 -15q-136 -62 -280 -62q-141 0 -242.5 105t-101.5 252zM406 991q0 28 19 48t46 20q28 0 47 -20t19 -48q0 -27 -19.5 -46t-46.5 -19t-46 19t-19 46z" />
<glyph unicode="&#xc0;" horiz-adv-x="1071" d="M33 20q0 7 2 13l450 1386q5 15 20 26t32 11q36 0 49 -37l450 -1386q2 -6 2 -15q0 -14 -11 -26t-28 -12q-29 0 -38 28q-60 187 -136 418h-579l-135 -418q-9 -28 -39 -28q-15 0 -27 11.5t-12 28.5zM272 504h527l-262 813zM362 1772q0 15 11 26.5t26 11.5q11 0 23 -6 l213 -131q18 -12 18 -33q0 -14 -11 -25t-28 -11q-8 0 -20 6l-213 129q-19 13 -19 33z" />
<glyph unicode="&#xc1;" horiz-adv-x="1071" d="M33 20q0 7 2 13l450 1386q5 15 20 26t32 11q36 0 49 -37l450 -1386q2 -6 2 -15q0 -14 -11 -26t-28 -12q-29 0 -38 28q-60 187 -136 418h-579l-135 -418q-9 -28 -39 -28q-15 0 -27 11.5t-12 28.5zM272 504h527l-262 813zM418 1642q0 21 18 33l213 129q12 6 21 6 q17 0 28 -11t11 -25q0 -20 -19 -33l-213 -131q-12 -6 -22 -6q-15 0 -26 11.5t-11 26.5z" />
<glyph unicode="&#xc2;" horiz-adv-x="1071" d="M33 20q0 7 2 13l450 1386q5 15 20 26t32 11q36 0 49 -37l450 -1386q2 -6 2 -15q0 -14 -11 -26t-28 -12q-29 0 -38 28q-60 187 -136 418h-579l-135 -418q-9 -28 -39 -28q-15 0 -27 11.5t-12 28.5zM272 504h527l-262 813zM297 1640q0 20 16 31l185 127q15 12 37 12 q23 0 38 -12l183 -127q16 -11 16 -31q0 -17 -10.5 -26.5t-26.5 -9.5q-11 0 -22 8l-178 121l-177 -121q-12 -8 -22 -8q-18 0 -28.5 10t-10.5 26z" />
<glyph unicode="&#xc3;" horiz-adv-x="1071" d="M33 20q0 7 2 13l450 1386q5 15 20 26t32 11q36 0 49 -37l450 -1386q2 -6 2 -15q0 -14 -11 -26t-28 -12q-29 0 -38 28q-60 187 -136 418h-579l-135 -418q-9 -28 -39 -28q-15 0 -27 11.5t-12 28.5zM272 504h527l-262 813zM272 1704q0 16 11 27q69 79 155 79q58 0 121 -45 q37 -26 70 -26q60 0 98 51q13 16 31 16q17 0 27 -11.5t10 -27.5q0 -9 -9 -22q-67 -80 -157 -80q-63 0 -119 43q-36 29 -72 29q-58 0 -96 -51q-15 -19 -33 -19q-16 0 -26.5 11.5t-10.5 25.5z" />
<glyph unicode="&#xc4;" horiz-adv-x="1071" d="M33 20q0 7 2 13l450 1386q5 15 20 26t32 11q36 0 49 -37l450 -1386q2 -6 2 -15q0 -14 -11 -26t-28 -12q-29 0 -38 28q-60 187 -136 418h-579l-135 -418q-9 -28 -39 -28q-15 0 -27 11.5t-12 28.5zM272 504h527l-262 813zM319 1769q0 25 16.5 41.5t39.5 16.5q25 0 41 -16.5 t16 -41.5q0 -23 -16 -39t-41 -16q-23 0 -39.5 16t-16.5 39zM637 1769q0 25 16 41.5t41 16.5q23 0 39.5 -16.5t16.5 -41.5q0 -23 -16.5 -39t-39.5 -16q-25 0 -41 16t-16 39z" />
<glyph unicode="&#xc5;" horiz-adv-x="1071" d="M33 20q0 7 2 13l450 1386q5 15 20 26t32 11q36 0 49 -37l450 -1386q2 -6 2 -15q0 -14 -11 -26t-28 -12q-29 0 -38 28q-60 187 -136 418h-579l-135 -418q-9 -28 -39 -28q-15 0 -27 11.5t-12 28.5zM272 504h527l-262 813zM340 1769q0 80 57 137.5t138 57.5 q79 0 136.5 -57.5t57.5 -137.5q0 -81 -57 -137.5t-137 -56.5q-82 0 -138.5 56t-56.5 138zM412 1769q0 -53 36 -90t87 -37t86.5 37t35.5 90t-35.5 90t-86.5 37t-87 -37t-36 -90z" />
<glyph unicode="&#xc6;" horiz-adv-x="1619" d="M33 18q0 12 6 21l797 1366q7 13 23.5 22t33.5 9h596q17 0 28 -11t11 -28t-11 -29t-28 -12h-582v-572h555q17 0 28 -12t11 -29q0 -15 -11 -26.5t-28 -11.5h-555v-625h594q17 0 29 -12t12 -29q0 -15 -12 -27t-29 -12h-608q-28 0 -47 19t-19 47v360h-471l-250 -426 q-9 -18 -34 -18q-16 0 -27.5 10t-11.5 26zM403 506h424v725z" />
<glyph unicode="&#xc7;" horiz-adv-x="952" d="M123 442v551q0 209 127 336t336 127q144 0 280 -86q19 -13 19 -35q0 -15 -11 -26t-28 -11q-12 0 -23 7q-116 75 -237 75q-176 0 -278.5 -104.5t-102.5 -282.5v-551q0 -178 102.5 -282.5t278.5 -104.5q116 0 237 78q9 6 21 6q15 0 28 -11t13 -28q0 -21 -19 -34 q-136 -86 -280 -86h-31l-14 -68q57 -27 85.5 -58.5t28.5 -78.5q0 -144 -209 -215q-45 -13 -55 -13q-39 0 -39 33t31 37q26 5 55 14.5t63.5 25.5t56.5 42.5t22 58.5q0 36 -23 56t-84 49q-16 11 -16 26q0 1 8 41l12 60q-135 24 -227 116q-127 127 -127 336z" />
<glyph unicode="&#xc8;" horiz-adv-x="960" d="M168 66v1304q0 28 18.5 47t46.5 19h596q17 0 28 -11t11 -28t-11 -28t-28 -11h-579v-576h553q17 0 29 -11t12 -28q0 -15 -12 -26.5t-29 -11.5h-553v-627h594q16 0 27.5 -11t11.5 -28q0 -15 -12 -27t-27 -12h-611q-28 0 -46.5 19t-18.5 47zM342 1772q0 15 11 26.5t26 11.5 q10 0 22 -6l213 -131q19 -13 19 -33q0 -14 -11 -25t-28 -11q-9 0 -21 6l-213 129q-18 12 -18 33z" />
<glyph unicode="&#xc9;" horiz-adv-x="960" d="M168 66v1304q0 28 18.5 47t46.5 19h596q17 0 28 -11t11 -28t-11 -28t-28 -11h-579v-576h553q17 0 29 -11t12 -28q0 -15 -12 -26.5t-29 -11.5h-553v-627h594q16 0 27.5 -11t11.5 -28q0 -15 -12 -27t-27 -12h-611q-28 0 -46.5 19t-18.5 47zM397 1642q0 20 19 33l213 129 q12 6 20 6q17 0 28 -11t11 -25q0 -21 -18 -33l-213 -131q-12 -6 -23 -6q-15 0 -26 11.5t-11 26.5z" />
<glyph unicode="&#xca;" horiz-adv-x="960" d="M168 66v1304q0 28 18.5 47t46.5 19h596q17 0 28 -11t11 -28t-11 -28t-28 -11h-579v-576h553q17 0 29 -11t12 -28q0 -15 -12 -26.5t-29 -11.5h-553v-627h594q16 0 27.5 -11t11.5 -28q0 -15 -12 -27t-27 -12h-611q-28 0 -46.5 19t-18.5 47zM276 1640q0 20 17 31l184 127 q15 12 37 12q24 0 39 -12l182 -127q17 -11 17 -31q0 -17 -10.5 -26.5t-26.5 -9.5q-12 0 -23 8l-178 121l-176 -121q-12 -8 -23 -8q-18 0 -28.5 10t-10.5 26z" />
<glyph unicode="&#xcb;" horiz-adv-x="960" d="M168 66v1304q0 28 18.5 47t46.5 19h596q17 0 28 -11t11 -28t-11 -28t-28 -11h-579v-576h553q17 0 29 -11t12 -28q0 -15 -12 -26.5t-29 -11.5h-553v-627h594q16 0 27.5 -11t11.5 -28q0 -15 -12 -27t-27 -12h-611q-28 0 -46.5 19t-18.5 47zM299 1769q0 25 16 41.5t39 16.5 q25 0 41.5 -16.5t16.5 -41.5q0 -23 -16.5 -39t-41.5 -16q-23 0 -39 16t-16 39zM616 1769q0 25 16.5 41.5t41.5 16.5q23 0 39 -16.5t16 -41.5q0 -23 -16 -39t-39 -16q-25 0 -41.5 16t-16.5 39z" />
<glyph unicode="&#xcc;" horiz-adv-x="417" d="M37 1772q0 15 11 26.5t26 11.5q10 0 22 -6l213 -131q19 -13 19 -33q0 -14 -11 -25t-28 -11q-9 0 -21 6l-213 129q-18 12 -18 33zM168 20v1395q0 17 12.5 29t28.5 12q17 0 29 -12t12 -29v-1395q0 -17 -12 -28.5t-29 -11.5q-16 0 -28.5 11.5t-12.5 28.5z" />
<glyph unicode="&#xcd;" horiz-adv-x="417" d="M92 1642q0 20 19 33l213 129q12 6 20 6q17 0 28 -11t11 -25q0 -21 -18 -33l-213 -131q-12 -6 -23 -6q-15 0 -26 11.5t-11 26.5zM168 20v1395q0 17 12.5 29t28.5 12q17 0 29 -12t12 -29v-1395q0 -17 -12 -28.5t-29 -11.5q-16 0 -28.5 11.5t-12.5 28.5z" />
<glyph unicode="&#xce;" horiz-adv-x="417" d="M-29 1640q0 20 17 31l184 127q15 12 37 12q24 0 39 -12l182 -127q16 -11 16 -31q0 -17 -10 -26.5t-26 -9.5q-12 0 -23 8l-178 121l-176 -121q-12 -8 -23 -8q-18 0 -28.5 10t-10.5 26zM168 20v1395q0 17 12.5 29t28.5 12q17 0 29 -12t12 -29v-1395q0 -17 -12 -28.5 t-29 -11.5q-16 0 -28.5 11.5t-12.5 28.5z" />
<glyph unicode="&#xcf;" horiz-adv-x="417" d="M-6 1769q0 25 16 41.5t39 16.5q25 0 41 -16.5t16 -41.5q0 -23 -16 -39t-41 -16q-23 0 -39 16t-16 39zM168 20v1395q0 17 12.5 29t28.5 12q17 0 29 -12t12 -29v-1395q0 -17 -12 -28.5t-29 -11.5q-16 0 -28.5 11.5t-12.5 28.5zM311 1769q0 25 16.5 41.5t41.5 16.5 q23 0 39 -16.5t16 -41.5q0 -23 -16 -39t-39 -16q-25 0 -41.5 16t-16.5 39z" />
<glyph unicode="&#xd0;" horiz-adv-x="1200" d="M45 745q0 15 12 27t27 12h160v586q0 28 18.5 47t46.5 19h273q224 0 360 -133q135 -135 135 -359v-452q0 -225 -135 -357q-138 -135 -360 -135h-273q-28 0 -46.5 19t-18.5 47v641h-160q-15 0 -27 11.5t-12 26.5zM326 78h254q193 0 303 110q112 112 112 301v455 q0 191 -110 301q-111 111 -305 111h-254v-572h262q17 0 28 -11.5t11 -27.5q0 -15 -11 -26.5t-28 -11.5h-262v-629z" />
<glyph unicode="&#xd1;" horiz-adv-x="1183" d="M168 20v1383q0 22 15.5 37.5t37.5 15.5q33 0 47 -29l666 -1277v1263q0 19 10.5 31t28.5 12q19 0 31 -12t12 -31v-1380q0 -22 -15.5 -37.5t-37.5 -15.5q-32 0 -48 28l-665 1278v-1266q0 -19 -11.5 -29.5t-29.5 -10.5q-16 0 -28.5 10.5t-12.5 29.5zM330 1704q0 17 10 27 q69 79 156 79q57 0 120 -45q37 -26 70 -26q60 0 98 51q13 16 31 16q17 0 27 -11.5t10 -27.5q0 -10 -8 -22q-67 -80 -158 -80q-63 0 -119 43q-36 29 -71 29q-26 0 -53 -14t-44 -37q-15 -19 -32 -19q-16 0 -26.5 11.5t-10.5 25.5z" />
<glyph unicode="&#xd2;" horiz-adv-x="1120" d="M123 418v602q0 198 119 317t317 119q199 0 318 -119q120 -123 120 -317v-602q0 -198 -120 -318q-117 -120 -318 -120q-197 0 -317 120q-119 119 -119 318zM205 416q0 -166 95 -263.5t259 -97.5q165 0 260.5 97.5t95.5 263.5v606q0 165 -95.5 261.5t-260.5 96.5 q-164 0 -259 -96.5t-95 -261.5v-606zM387 1772q0 15 11 26.5t26 11.5q10 0 22 -6l213 -131q19 -13 19 -33q0 -14 -11 -25t-28 -11q-9 0 -21 6l-212 129q-19 13 -19 33z" />
<glyph unicode="&#xd3;" horiz-adv-x="1120" d="M123 418v602q0 198 119 317t317 119q199 0 318 -119q120 -123 120 -317v-602q0 -198 -120 -318q-117 -120 -318 -120q-197 0 -317 120q-119 119 -119 318zM205 416q0 -166 95 -263.5t259 -97.5q165 0 260.5 97.5t95.5 263.5v606q0 165 -95.5 261.5t-260.5 96.5 q-164 0 -259 -96.5t-95 -261.5v-606zM442 1642q0 20 19 33l213 129q12 6 20 6q17 0 28 -11t11 -25q0 -21 -18 -33l-213 -131q-12 -6 -23 -6q-15 0 -26 11.5t-11 26.5z" />
<glyph unicode="&#xd4;" horiz-adv-x="1120" d="M123 418v602q0 198 119 317t317 119q199 0 318 -119q120 -123 120 -317v-602q0 -198 -120 -318q-117 -120 -318 -120q-197 0 -317 120q-119 119 -119 318zM205 416q0 -166 95 -263.5t259 -97.5q165 0 260.5 97.5t95.5 263.5v606q0 165 -95.5 261.5t-260.5 96.5 q-164 0 -259 -96.5t-95 -261.5v-606zM322 1640q0 20 16 31l184 127q15 12 37 12q24 0 39 -12l182 -127q17 -11 17 -31q0 -17 -10.5 -26.5t-26.5 -9.5q-12 0 -23 8l-178 121l-176 -121q-12 -8 -23 -8q-18 0 -28 10t-10 26z" />
<glyph unicode="&#xd5;" horiz-adv-x="1120" d="M123 418v602q0 198 119 317t317 119q199 0 318 -119q120 -123 120 -317v-602q0 -198 -120 -318q-117 -120 -318 -120q-197 0 -317 120q-119 119 -119 318zM205 416q0 -166 95 -263.5t259 -97.5q165 0 260.5 97.5t95.5 263.5v606q0 165 -95.5 261.5t-260.5 96.5 q-164 0 -259 -96.5t-95 -261.5v-606zM297 1704q0 17 10 27q69 79 156 79q58 0 121 -45q37 -26 69 -26q61 0 99 51q13 16 30 16t27 -11.5t10 -27.5q0 -10 -8 -22q-67 -80 -158 -80q-62 0 -118 43q-36 29 -72 29q-58 0 -96 -51q-15 -19 -33 -19q-16 0 -26.5 11.5t-10.5 25.5z " />
<glyph unicode="&#xd6;" horiz-adv-x="1120" d="M123 418v602q0 198 119 317t317 119q199 0 318 -119q120 -123 120 -317v-602q0 -198 -120 -318q-117 -120 -318 -120q-197 0 -317 120q-119 119 -119 318zM205 416q0 -166 95 -263.5t259 -97.5q165 0 260.5 97.5t95.5 263.5v606q0 165 -95.5 261.5t-260.5 96.5 q-164 0 -259 -96.5t-95 -261.5v-606zM344 1769q0 25 16 41.5t39 16.5q25 0 41.5 -16.5t16.5 -41.5q0 -23 -16.5 -39t-41.5 -16q-23 0 -39 16t-16 39zM662 1769q0 25 16 41.5t41 16.5q23 0 39 -16.5t16 -41.5q0 -23 -16 -39t-39 -16q-25 0 -41 16t-16 39z" />
<glyph unicode="&#xd7;" d="M104 139q0 16 13 29l360 358l-360 359q-13 13 -13 28q0 16 11 27.5t28 11.5q19 0 29 -10l358 -362l361 362q10 10 27 10q16 0 28 -10.5t12 -28.5q0 -16 -12 -28l-360 -359l360 -358q12 -12 12 -29q0 -16 -11 -27.5t-29 -11.5q-16 0 -27 11l-361 360l-358 -360 q-11 -11 -29 -11q-16 0 -27.5 10.5t-11.5 28.5z" />
<glyph unicode="&#xd8;" horiz-adv-x="1120" d="M123 418v602q0 196 119 315q121 121 317 121q145 0 254 -70l68 152q11 25 37 25q15 0 26.5 -12t11.5 -29q0 -5 -4 -17l-75 -170q120 -120 120 -315v-602q0 -198 -120 -318q-117 -120 -318 -120q-147 0 -254 69l-67 -151q-11 -25 -35 -25q-16 0 -28.5 12t-12.5 29 q0 4 4 16l76 170q-119 119 -119 318zM205 414q0 -147 71 -236l504 1139q-88 63 -221 63q-164 0 -259 -96t-95 -260v-610zM338 121q87 -66 221 -66q165 0 260.5 96.5t95.5 262.5v610q0 145 -73 236z" />
<glyph unicode="&#xd9;" horiz-adv-x="1177" d="M145 424v991q0 17 12.5 29t28.5 12q17 0 29 -12t12 -29v-993q0 -169 97 -268t264 -99q168 0 265 99t97 268v993q0 17 12 29t29 12q16 0 28.5 -12t12.5 -29v-991q0 -201 -121 -322q-122 -122 -323 -122q-200 0 -322 122q-121 118 -121 322zM416 1772q0 15 11 26.5t26 11.5 q10 0 22 -6l213 -131q19 -13 19 -33q0 -14 -11 -25t-28 -11q-9 0 -21 6l-213 129q-18 12 -18 33z" />
<glyph unicode="&#xda;" horiz-adv-x="1177" d="M145 424v991q0 17 12.5 29t28.5 12q17 0 29 -12t12 -29v-993q0 -169 97 -268t264 -99q168 0 265 99t97 268v993q0 17 12 29t29 12q16 0 28.5 -12t12.5 -29v-991q0 -201 -121 -322q-122 -122 -323 -122q-200 0 -322 122q-121 118 -121 322zM471 1642q0 21 18 33l213 129 q12 6 21 6q17 0 28 -11t11 -25q0 -20 -19 -33l-213 -131q-12 -6 -22 -6q-15 0 -26 11.5t-11 26.5z" />
<glyph unicode="&#xdb;" horiz-adv-x="1177" d="M145 424v991q0 17 12.5 29t28.5 12q17 0 29 -12t12 -29v-993q0 -169 97 -268t264 -99q168 0 265 99t97 268v993q0 17 12 29t29 12q16 0 28.5 -12t12.5 -29v-991q0 -201 -121 -322q-122 -122 -323 -122q-200 0 -322 122q-121 118 -121 322zM350 1640q0 20 17 31l184 127 q15 12 37 12q24 0 39 -12l182 -127q16 -11 16 -31q0 -17 -10.5 -26.5t-26.5 -9.5q-11 0 -22 8l-178 121l-176 -121q-12 -8 -23 -8q-18 0 -28.5 10t-10.5 26z" />
<glyph unicode="&#xdc;" horiz-adv-x="1177" d="M145 424v991q0 17 12.5 29t28.5 12q17 0 29 -12t12 -29v-993q0 -169 97 -268t264 -99q168 0 265 99t97 268v993q0 17 12 29t29 12q16 0 28.5 -12t12.5 -29v-991q0 -201 -121 -322q-122 -122 -323 -122q-200 0 -322 122q-121 118 -121 322zM373 1769q0 25 16 41.5t39 16.5 q25 0 41 -16.5t16 -41.5q0 -23 -16 -39t-41 -16q-23 0 -39 16t-16 39zM690 1769q0 25 16.5 41.5t41.5 16.5q23 0 39 -16.5t16 -41.5q0 -23 -16 -39t-39 -16q-25 0 -41.5 16t-16.5 39z" />
<glyph unicode="&#xdd;" horiz-adv-x="944" d="M23 1415q0 16 10 28.5t28 12.5q27 0 37 -20l375 -699l373 699q10 20 37 20q16 0 27.5 -11t11.5 -28q0 -12 -4 -20l-406 -750v-627q0 -17 -12 -28.5t-27 -11.5q-17 0 -29 11.5t-12 28.5v627l-405 750q-4 8 -4 18zM354 1642q0 20 19 33l213 129q12 6 20 6q17 0 28 -11 t11 -25q0 -21 -18 -33l-213 -131q-12 -6 -23 -6q-15 0 -26 11.5t-11 26.5z" />
<glyph unicode="&#xde;" horiz-adv-x="1058" d="M168 20v1395q0 17 12.5 29t28.5 12q17 0 29 -12t12 -29v-311h309q172 0 279 -107q108 -108 108 -286q0 -171 -102 -273q-106 -106 -285 -106h-309v-312q0 -17 -12 -28.5t-29 -11.5q-16 0 -28.5 11.5t-12.5 28.5zM250 410h307q142 0 227 82q80 77 80 219q0 149 -84 233 q-85 82 -223 82h-307v-616z" />
<glyph unicode="&#xdf;" horiz-adv-x="1071" d="M145 20v1086q0 156 95 254q93 96 249 96q146 0 242 -78q100 -80 100 -219q0 -49 -13 -89.5t-39 -71.5t-46 -48.5t-53 -40.5q-27 -20 -42.5 -32.5t-33.5 -34t-26.5 -46.5t-8.5 -57q0 -46 26 -75.5t77 -59.5l174 -104q147 -87 147 -246q0 -114 -79 -194t-191 -80 q-121 0 -236 59q-22 13 -22 35q0 15 10.5 27t26.5 12q10 0 18 -4q118 -56 203 -56q77 0 133.5 60.5t56.5 140.5q0 119 -108 184l-182 109q-31 19 -48 31t-40.5 36t-34.5 55t-11 70q0 37 9.5 68.5t20.5 51.5t35 43.5t37 33.5t42 31q40 30 61 49.5t39.5 57.5t18.5 85 q0 100 -72 161.5t-191 61.5q-123 0 -193.5 -72.5t-70.5 -197.5v-1092q0 -17 -12 -28.5t-29 -11.5q-15 0 -27 11.5t-12 28.5z" />
<glyph unicode="&#xe0;" horiz-adv-x="923" d="M90 279q0 137 84 215q90 81 279 81h245v156q0 110 -67.5 168.5t-171.5 58.5q-123 0 -246 -69q-9 -6 -23 -6t-25 10.5t-11 26.5q0 23 20 34q139 78 279 78q139 0 232 -74t93 -206v-660q0 -46 -45 -63q-131 -49 -280 -49q-187 0 -279 83q-84 78 -84 216zM170 279 q0 -109 57 -160q72 -66 226 -66q111 0 245 43v406h-245q-156 0 -226 -64q-57 -51 -57 -159zM289 1417q0 15 11 27t26 12q10 0 22 -6l213 -131q19 -13 19 -33q0 -14 -11 -25.5t-28 -11.5q-9 0 -21 6l-213 129q-18 12 -18 33z" />
<glyph unicode="&#xe1;" horiz-adv-x="923" d="M90 279q0 137 84 215q90 81 279 81h245v156q0 110 -67.5 168.5t-171.5 58.5q-123 0 -246 -69q-9 -6 -23 -6t-25 10.5t-11 26.5q0 23 20 34q139 78 279 78q139 0 232 -74t93 -206v-660q0 -46 -45 -63q-131 -49 -280 -49q-187 0 -279 83q-84 78 -84 216zM170 279 q0 -109 57 -160q72 -66 226 -66q111 0 245 43v406h-245q-156 0 -226 -64q-57 -51 -57 -159zM346 1288q0 20 19 33l213 129q12 6 20 6q17 0 28 -11.5t11 -25.5q0 -20 -19 -33l-212 -131q-12 -6 -23 -6q-15 0 -26 12t-11 27z" />
<glyph unicode="&#xe2;" horiz-adv-x="923" d="M90 279q0 137 84 215q90 81 279 81h245v156q0 110 -67.5 168.5t-171.5 58.5q-123 0 -246 -69q-9 -6 -23 -6t-25 10.5t-11 26.5q0 23 20 34q139 78 279 78q139 0 232 -74t93 -206v-660q0 -46 -45 -63q-131 -49 -280 -49q-187 0 -279 83q-84 78 -84 216zM170 279 q0 -109 57 -160q72 -66 226 -66q111 0 245 43v406h-245q-156 0 -226 -64q-57 -51 -57 -159zM223 1286q0 20 17 31l184 127q15 12 37 12q24 0 39 -12l182 -127q16 -11 16 -31q0 -17 -10.5 -27t-25.5 -10q-12 0 -23 8l-178 121l-176 -121q-12 -8 -23 -8q-18 0 -28.5 10.5 t-10.5 26.5z" />
<glyph unicode="&#xe3;" horiz-adv-x="923" d="M90 279q0 137 84 215q90 81 279 81h245v156q0 110 -67.5 168.5t-171.5 58.5q-123 0 -246 -69q-9 -6 -23 -6t-25 10.5t-11 26.5q0 23 20 34q139 78 279 78q139 0 232 -74t93 -206v-660q0 -46 -45 -63q-131 -49 -280 -49q-187 0 -279 83q-84 78 -84 216zM170 279 q0 -109 57 -160q72 -66 226 -66q111 0 245 43v406h-245q-156 0 -226 -64q-57 -51 -57 -159zM199 1350q0 16 10 26q70 80 156 80q57 0 120 -45q39 -27 70 -27q59 0 98 52q13 16 31 16q17 0 27 -11.5t10 -27.5q0 -10 -8 -22q-67 -80 -158 -80q-63 0 -119 43q-35 28 -71 28 q-26 0 -53 -14t-44 -37q-14 -18 -32 -18q-16 0 -26.5 11.5t-10.5 25.5z" />
<glyph unicode="&#xe4;" horiz-adv-x="923" d="M90 279q0 137 84 215q90 81 279 81h245v156q0 110 -67.5 168.5t-171.5 58.5q-123 0 -246 -69q-9 -6 -23 -6t-25 10.5t-11 26.5q0 23 20 34q139 78 279 78q139 0 232 -74t93 -206v-660q0 -46 -45 -63q-131 -49 -280 -49q-187 0 -279 83q-84 78 -84 216zM170 279 q0 -109 57 -160q72 -66 226 -66q111 0 245 43v406h-245q-156 0 -226 -64q-57 -51 -57 -159zM246 1399q0 25 16 41t39 16q24 0 40.5 -16.5t16.5 -40.5q0 -23 -17 -39.5t-40 -16.5t-39 16.5t-16 39.5zM563 1399q0 25 16 41t39 16q24 0 41 -16.5t17 -40.5q0 -23 -17.5 -39.5 t-40.5 -16.5t-39 16.5t-16 39.5z" />
<glyph unicode="&#xe5;" horiz-adv-x="923" d="M90 279q0 137 84 215q90 81 279 81h245v156q0 110 -67.5 168.5t-171.5 58.5q-123 0 -246 -69q-9 -6 -23 -6t-25 10.5t-11 26.5q0 23 20 34q139 78 279 78q139 0 232 -74t93 -206v-660q0 -46 -45 -63q-131 -49 -280 -49q-187 0 -279 83q-84 78 -84 216zM170 279 q0 -109 57 -160q72 -66 226 -66q111 0 245 43v406h-245q-156 0 -226 -64q-57 -51 -57 -159zM266 1386q0 80 57 137.5t138 57.5q79 0 136.5 -57.5t57.5 -137.5q0 -81 -57 -137.5t-137 -56.5q-82 0 -138.5 56t-56.5 138zM338 1386q0 -52 36 -89t87 -37t87 37t36 89 q0 53 -36 90t-87 37t-87 -37t-36 -90z" />
<glyph unicode="&#xe6;" horiz-adv-x="1499" d="M90 279q0 152 99 225.5t264 73.5h245v174q0 87 -70 146.5t-169 59.5q-123 0 -246 -69q-9 -6 -23 -6t-25 10.5t-11 26.5q0 23 20 34q139 78 279 78q103 0 178.5 -43.5t113.5 -118.5q41 83 119 122.5t178 39.5q156 0 250 -94t94 -250v-121q0 -28 -18.5 -46.5t-46.5 -18.5 h-543v-178q0 -123 71 -197t193 -74q103 0 248 60q12 4 19 4q14 0 26.5 -11t12.5 -26q0 -26 -25 -37q-142 -63 -281 -63q-222 0 -305 180q-44 -90 -128 -135t-175 -45t-167.5 31.5t-126.5 101t-50 166.5zM170 279q0 -110 73 -168t191 -58q67 0 119.5 25.5t83 66t46 86.5 t15.5 93v178h-245q-283 0 -283 -223zM778 578h529v116q0 123 -71 193.5t-194 70.5t-193.5 -70.5t-70.5 -193.5v-116z" />
<glyph unicode="&#xe7;" horiz-adv-x="802" d="M113 324v364q0 156 94 250t250 94q128 0 256 -59q22 -9 22 -35q0 -15 -11 -26t-28 -11q-4 0 -16 4q-132 53 -223 53q-122 0 -193 -73t-71 -197v-364q0 -123 71 -197t193 -74q111 0 223 56q8 4 16 4q14 0 26.5 -11.5t12.5 -27.5q0 -22 -22 -35q-106 -56 -238 -59l-14 -68 q57 -27 85.5 -58.5t28.5 -78.5q0 -145 -208 -215q-45 -13 -56 -13q-39 0 -39 33t31 37q26 5 55 14.5t63.5 25.5t56.5 42.5t22 58.5q0 36 -23 56t-84 49q-16 11 -16 26q0 1 8 41l12 54q-115 15 -190 90q-94 94 -94 250z" />
<glyph unicode="&#xe8;" horiz-adv-x="913" d="M113 324v364q0 156 94 250t250 94t250 -94t94 -250v-123q0 -28 -19 -46.5t-47 -18.5h-542v-176q0 -123 71 -197t193 -74q103 0 248 60q12 4 18 4q14 0 26.5 -11t12.5 -26q0 -26 -25 -37q-142 -63 -280 -63q-156 0 -250 94t-94 250zM193 573h528v121q0 123 -70.5 193.5 t-193.5 70.5t-193.5 -70.5t-70.5 -193.5v-121zM285 1417q0 15 11 27t26 12q10 0 22 -6l213 -131q18 -12 18 -33q0 -14 -10.5 -25.5t-27.5 -11.5q-9 0 -21 6l-213 129q-18 12 -18 33z" />
<glyph unicode="&#xe9;" horiz-adv-x="913" d="M113 324v364q0 156 94 250t250 94t250 -94t94 -250v-123q0 -28 -19 -46.5t-47 -18.5h-542v-176q0 -123 71 -197t193 -74q103 0 248 60q12 4 18 4q14 0 26.5 -11t12.5 -26q0 -26 -25 -37q-142 -63 -280 -63q-156 0 -250 94t-94 250zM193 573h528v121q0 123 -70.5 193.5 t-193.5 70.5t-193.5 -70.5t-70.5 -193.5v-121zM342 1288q0 21 18 33l213 129q12 6 21 6q17 0 28 -11.5t11 -25.5q0 -20 -19 -33l-213 -131q-12 -6 -22 -6q-15 0 -26 12t-11 27z" />
<glyph unicode="&#xea;" horiz-adv-x="913" d="M113 324v364q0 156 94 250t250 94t250 -94t94 -250v-123q0 -28 -19 -46.5t-47 -18.5h-542v-176q0 -123 71 -197t193 -74q103 0 248 60q12 4 18 4q14 0 26.5 -11t12.5 -26q0 -26 -25 -37q-142 -63 -280 -63q-156 0 -250 94t-94 250zM193 573h528v121q0 123 -70.5 193.5 t-193.5 70.5t-193.5 -70.5t-70.5 -193.5v-121zM219 1286q0 20 17 31l184 127q15 12 37 12q24 0 39 -12l182 -127q16 -11 16 -31q0 -17 -10.5 -27t-26.5 -10q-11 0 -22 8l-178 121l-176 -121q-12 -8 -23 -8q-18 0 -28.5 10.5t-10.5 26.5z" />
<glyph unicode="&#xeb;" horiz-adv-x="913" d="M113 324v364q0 156 94 250t250 94t250 -94t94 -250v-123q0 -28 -19 -46.5t-47 -18.5h-542v-176q0 -123 71 -197t193 -74q103 0 248 60q12 4 18 4q14 0 26.5 -11t12.5 -26q0 -26 -25 -37q-142 -63 -280 -63q-156 0 -250 94t-94 250zM193 573h528v121q0 123 -70.5 193.5 t-193.5 70.5t-193.5 -70.5t-70.5 -193.5v-121zM242 1399q0 25 16 41t39 16q24 0 40.5 -16.5t16.5 -40.5q0 -23 -17 -39.5t-40 -16.5t-39 16.5t-16 39.5zM559 1399q0 25 16 41t39 16q24 0 41 -16.5t17 -40.5q0 -23 -17.5 -39.5t-40.5 -16.5t-39 16.5t-16 39.5z" />
<glyph unicode="&#xec;" horiz-adv-x="440" d="M47 1417q0 15 11 27t26 12q10 0 22 -6l213 -131q19 -13 19 -33q0 -14 -11 -25.5t-28 -11.5q-8 0 -20 6l-213 129q-19 13 -19 33zM180 20v973q0 15 12 27t29 12q15 0 27 -12t12 -27v-973q0 -17 -12 -28.5t-27 -11.5q-17 0 -29 11.5t-12 28.5z" />
<glyph unicode="&#xed;" horiz-adv-x="440" d="M104 1288q0 20 19 33l213 129q12 6 20 6q17 0 28 -11.5t11 -25.5q0 -21 -18 -33l-213 -131q-12 -6 -23 -6q-15 0 -26 12t-11 27zM180 20v973q0 15 12 27t29 12q15 0 27 -12t12 -27v-973q0 -17 -12 -28.5t-27 -11.5q-17 0 -29 11.5t-12 28.5z" />
<glyph unicode="&#xee;" horiz-adv-x="440" d="M-18 1286q0 20 16 31l184 127q15 12 37 12q24 0 39 -12l182 -127q17 -11 17 -31q0 -17 -10.5 -27t-26.5 -10q-12 0 -23 8l-178 121l-176 -121q-12 -8 -23 -8q-18 0 -28 10.5t-10 26.5zM180 20v973q0 15 12 27t29 12q15 0 27 -12t12 -27v-973q0 -17 -12 -28.5t-27 -11.5 q-17 0 -29 11.5t-12 28.5z" />
<glyph unicode="&#xef;" horiz-adv-x="440" d="M4 1399q0 25 16 41t39 16q24 0 41 -16.5t17 -40.5q0 -23 -17.5 -39.5t-40.5 -16.5t-39 16.5t-16 39.5zM180 20v973q0 15 12 27t29 12q15 0 27 -12t12 -27v-973q0 -17 -12 -28.5t-27 -11.5q-17 0 -29 11.5t-12 28.5zM322 1399q0 25 16 41t39 16q24 0 40.5 -16.5 t16.5 -40.5q0 -23 -17 -39.5t-40 -16.5t-39 16.5t-16 39.5z" />
<glyph unicode="&#xf0;" horiz-adv-x="999" d="M113 344v324q0 164 100 264t264 100q170 0 262 -102q-12 67 -41 135q-55 132 -137 203l-209 -94q-15 -5 -18 -5q-14 0 -25.5 10.5t-11.5 26.5q0 26 22 35l173 76q-65 40 -164 63q-31 8 -31 37q0 15 11 26t26 11q10 0 18 -2q127 -30 219 -98l213 96q12 4 21 4 q14 0 25.5 -10.5t11.5 -26.5q0 -24 -25 -35l-182 -82q80 -77 135 -206q70 -171 70 -426v-324q0 -165 -99 -264q-100 -100 -264 -100t-264 100t-100 264zM193 338q0 -132 76 -208.5t208 -76.5q131 0 207 76.5t76 208.5v336q0 132 -76 208t-207 76q-132 0 -208 -76t-76 -208 v-336z" />
<glyph unicode="&#xf1;" horiz-adv-x="991" d="M158 20v902q0 21 12.5 38t32.5 23q149 49 299 49q160 0 252 -92t92 -252v-668q0 -17 -12 -28.5t-27 -11.5q-17 0 -29 11.5t-12 28.5v674q0 123 -70.5 193.5t-193.5 70.5q-143 0 -264 -40v-898q0 -17 -12 -28.5t-29 -11.5q-15 0 -27 11.5t-12 28.5zM233 1350q0 15 11 26 q70 80 155 80q58 0 121 -45q39 -27 70 -27q59 0 98 52q13 16 31 16q17 0 27 -11.5t10 -27.5q0 -10 -8 -22q-67 -80 -158 -80q-63 0 -119 43q-35 28 -72 28q-58 0 -96 -51q-14 -18 -33 -18q-16 0 -26.5 11.5t-10.5 25.5z" />
<glyph unicode="&#xf2;" horiz-adv-x="952" d="M113 344v324q0 164 100 264t264 100t264 -100q99 -99 99 -264v-324q0 -165 -99 -264q-100 -100 -264 -100t-264 100t-100 264zM193 338q0 -132 76 -208.5t208 -76.5q131 0 207 76.5t76 208.5v336q0 130 -75.5 207t-207.5 77t-208 -76t-76 -208v-336zM303 1417q0 15 11 27 t26 12q10 0 22 -6l213 -131q19 -13 19 -33q0 -14 -11 -25.5t-28 -11.5q-8 0 -20 6l-213 129q-19 13 -19 33z" />
<glyph unicode="&#xf3;" horiz-adv-x="952" d="M113 344v324q0 164 100 264t264 100t264 -100q99 -99 99 -264v-324q0 -165 -99 -264q-100 -100 -264 -100t-264 100t-100 264zM193 338q0 -132 76 -208.5t208 -76.5q131 0 207 76.5t76 208.5v336q0 130 -75.5 207t-207.5 77t-208 -76t-76 -208v-336zM360 1288q0 20 19 33 l213 129q12 6 20 6q17 0 28 -11.5t11 -25.5q0 -21 -18 -33l-213 -131q-12 -6 -23 -6q-15 0 -26 12t-11 27z" />
<glyph unicode="&#xf4;" horiz-adv-x="952" d="M113 344v324q0 164 100 264t264 100t264 -100q99 -99 99 -264v-324q0 -165 -99 -264q-100 -100 -264 -100t-264 100t-100 264zM193 338q0 -132 76 -208.5t208 -76.5q131 0 207 76.5t76 208.5v336q0 130 -75.5 207t-207.5 77t-208 -76t-76 -208v-336zM238 1286q0 20 16 31 l184 127q15 12 37 12q24 0 39 -12l182 -127q17 -11 17 -31q0 -17 -10.5 -27t-26.5 -10q-12 0 -23 8l-178 121l-176 -121q-12 -8 -23 -8q-18 0 -28 10.5t-10 26.5z" />
<glyph unicode="&#xf5;" horiz-adv-x="952" d="M113 344v324q0 164 100 264t264 100t264 -100q99 -99 99 -264v-324q0 -165 -99 -264q-100 -100 -264 -100t-264 100t-100 264zM193 338q0 -132 76 -208.5t208 -76.5q131 0 207 76.5t76 208.5v336q0 130 -75.5 207t-207.5 77t-208 -76t-76 -208v-336zM213 1350q0 16 10 26 q70 80 156 80q58 0 121 -45q39 -27 69 -27q60 0 99 52q13 16 30 16t27 -11.5t10 -27.5q0 -10 -8 -22q-67 -80 -158 -80q-62 0 -118 43q-35 28 -72 28q-58 0 -96 -51q-14 -18 -33 -18q-16 0 -26.5 11.5t-10.5 25.5z" />
<glyph unicode="&#xf6;" horiz-adv-x="952" d="M113 344v324q0 164 100 264t264 100t264 -100q99 -99 99 -264v-324q0 -165 -99 -264q-100 -100 -264 -100t-264 100t-100 264zM193 338q0 -132 76 -208.5t208 -76.5q131 0 207 76.5t76 208.5v336q0 130 -75.5 207t-207.5 77t-208 -76t-76 -208v-336zM260 1399q0 25 16 41 t39 16q24 0 41 -16.5t17 -40.5q0 -23 -17.5 -39.5t-40.5 -16.5t-39 16.5t-16 39.5zM578 1399q0 25 16 41t39 16q24 0 40.5 -16.5t16.5 -40.5q0 -23 -17 -39.5t-40 -16.5t-39 16.5t-16 39.5z" />
<glyph unicode="&#xf7;" d="M27 506q0 17 11.5 28t27.5 11h931q17 0 29 -11t12 -28t-11.5 -27t-29.5 -10h-931q-16 0 -27.5 10t-11.5 27zM467 47q0 27 19 46.5t46 19.5t46.5 -19.5t19.5 -46.5q0 -28 -19 -47.5t-47 -19.5t-46.5 19.5t-18.5 47.5zM467 967q0 28 18.5 46.5t46.5 18.5t47 -18.5t19 -46.5 t-19 -48t-47 -20q-27 0 -46 20t-19 48z" />
<glyph unicode="&#xf8;" horiz-adv-x="911" d="M92 344v324q0 163 101 264q100 100 264 100q107 0 186 -43l62 127q13 23 36 23q14 0 26.5 -12t12.5 -27q0 -7 -4 -19l-65 -139q108 -108 108 -274v-324q0 -166 -98 -264q-100 -100 -264 -100q-105 0 -189 43l-61 -125q-11 -25 -37 -25q-15 0 -27 12t-12 29q0 8 4 16 l68 140q-111 105 -111 274zM172 344q0 -131 66 -203l374 781q-65 36 -155 36q-132 0 -208.5 -76t-76.5 -208v-330zM301 90q67 -37 156 -37q131 0 206.5 76.5t75.5 208.5v336q0 116 -63 194z" />
<glyph unicode="&#xf9;" horiz-adv-x="991" d="M145 324v667q0 17 12 29t27 12q17 0 29 -12t12 -29v-674q0 -123 70.5 -193.5t193.5 -70.5q140 0 265 41v897q0 17 12 29t29 12q15 0 27 -12t12 -29v-901q0 -20 -13 -37.5t-33 -23.5q-149 -49 -299 -49q-159 0 -251 92q-93 93 -93 252zM324 1417q0 15 10.5 27t25.5 12 q11 0 23 -6l213 -131q18 -12 18 -33q0 -14 -11 -25.5t-28 -11.5q-8 0 -20 6l-213 129q-18 12 -18 33z" />
<glyph unicode="&#xfa;" horiz-adv-x="991" d="M145 324v667q0 17 12 29t27 12q17 0 29 -12t12 -29v-674q0 -123 70.5 -193.5t193.5 -70.5q140 0 265 41v897q0 17 12 29t29 12q15 0 27 -12t12 -29v-901q0 -20 -13 -37.5t-33 -23.5q-149 -49 -299 -49q-159 0 -251 92q-93 93 -93 252zM381 1288q0 21 18 33l213 129 q12 6 21 6q17 0 28 -11.5t11 -25.5q0 -20 -19 -33l-213 -131q-12 -6 -22 -6q-15 0 -26 12t-11 27z" />
<glyph unicode="&#xfb;" horiz-adv-x="991" d="M145 324v667q0 17 12 29t27 12q17 0 29 -12t12 -29v-674q0 -123 70.5 -193.5t193.5 -70.5q140 0 265 41v897q0 17 12 29t29 12q15 0 27 -12t12 -29v-901q0 -20 -13 -37.5t-33 -23.5q-149 -49 -299 -49q-159 0 -251 92q-93 93 -93 252zM258 1286q0 20 16 31l185 127 q15 12 37 12q24 0 39 -12l182 -127q16 -11 16 -31q0 -17 -10.5 -27t-26.5 -10q-11 0 -22 8l-178 121l-177 -121q-12 -8 -22 -8q-18 0 -28.5 10.5t-10.5 26.5z" />
<glyph unicode="&#xfc;" horiz-adv-x="991" d="M145 324v667q0 17 12 29t27 12q17 0 29 -12t12 -29v-674q0 -123 70.5 -193.5t193.5 -70.5q140 0 265 41v897q0 17 12 29t29 12q15 0 27 -12t12 -29v-901q0 -20 -13 -37.5t-33 -23.5q-149 -49 -299 -49q-159 0 -251 92q-93 93 -93 252zM281 1399q0 25 16 41t39 16 q24 0 40.5 -16.5t16.5 -40.5q0 -23 -17 -39.5t-40 -16.5t-39 16.5t-16 39.5zM598 1399q0 25 16 41t39 16q24 0 41 -16.5t17 -40.5q0 -23 -17.5 -39.5t-40.5 -16.5t-39 16.5t-16 39.5z" />
<glyph unicode="&#xfd;" horiz-adv-x="815" d="M45 -420q0 15 10 25.5t27 11.5q88 5 145 39q81 45 111 145l55 185l-344 993q-2 6 -2 14q0 15 10.5 27t28.5 12q29 0 39 -26l307 -908l273 906q9 28 36 28q16 0 28.5 -10.5t12.5 -28.5q0 -6 -2 -12l-366 -1202q-32 -106 -123 -171t-207 -65q-17 0 -28 10t-11 27zM293 1288 q0 21 18 33l213 129q12 6 21 6q17 0 28 -11.5t11 -25.5q0 -20 -19 -33l-213 -131q-12 -6 -22 -6q-15 0 -26 12t-11 27z" />
<glyph unicode="&#xfe;" horiz-adv-x="968" d="M158 -418v1833q0 17 12 29t27 12q17 0 29 -12t12 -29v-467q116 84 264 84q156 0 250 -94t94 -250v-364q0 -156 -94 -250t-250 -94q-145 0 -264 86v-484q0 -15 -12 -27t-29 -12q-15 0 -27 12t-12 27zM238 162q112 -109 264 -109q123 0 193.5 71t70.5 193v377 q0 123 -70.5 193.5t-193.5 70.5q-153 0 -264 -108v-688z" />
<glyph unicode="&#xff;" horiz-adv-x="815" d="M45 -420q0 15 10 25.5t27 11.5q88 5 145 39q81 45 111 145l55 185l-344 993q-2 6 -2 14q0 15 10.5 27t28.5 12q29 0 39 -26l307 -908l273 906q9 28 36 28q16 0 28.5 -10.5t12.5 -28.5q0 -6 -2 -12l-366 -1202q-32 -106 -123 -171t-207 -65q-17 0 -28 10t-11 27zM193 1399 q0 25 16 41t39 16q24 0 40.5 -16.5t16.5 -40.5q0 -23 -17 -39.5t-40 -16.5t-39 16.5t-16 39.5zM510 1399q0 25 16 41t39 16q24 0 41 -16.5t17 -40.5q0 -23 -17.5 -39.5t-40.5 -16.5t-39 16.5t-16 39.5z" />
<glyph unicode="&#x152;" horiz-adv-x="1710" d="M123 418v602q0 198 119 317t317 119q240 0 359 -168v82q0 28 18.5 47t46.5 19h596q17 0 28 -11t11 -28t-11 -28t-28 -11h-580v-576h553q17 0 29 -11t12 -28q0 -15 -12 -26.5t-29 -11.5h-553v-627h594q16 0 27.5 -11t11.5 -28q0 -15 -12 -27t-27 -12h-610q-28 0 -46.5 19 t-18.5 47v81q-60 -84 -153 -125.5t-206 -41.5q-197 0 -317 120q-119 119 -119 318zM205 416q0 -166 95 -263.5t259 -97.5q166 0 262.5 97.5t96.5 263.5v606q0 164 -97 261t-262 97q-164 0 -259 -96.5t-95 -261.5v-606z" />
<glyph unicode="&#x153;" horiz-adv-x="1560" d="M113 344v324q0 164 100 264t264 100q102 0 188.5 -45t131.5 -135q40 88 122.5 134t184.5 46q156 0 250 -94t94 -250v-123q0 -28 -19 -46.5t-47 -18.5h-542v-176q0 -123 71 -197t193 -74q103 0 248 60q12 4 18 4q14 0 26.5 -11t12.5 -26q0 -26 -25 -37q-142 -63 -280 -63 q-101 0 -182 44t-125 136q-41 -89 -128 -134.5t-192 -45.5q-164 0 -264 100t-100 264zM193 338q0 -132 76 -208.5t208 -76.5q128 0 205.5 73t77.5 198v362q0 124 -76.5 198t-206.5 74q-132 0 -208 -76t-76 -208v-336zM840 575h528v119q0 123 -70.5 193.5t-193.5 70.5 t-193.5 -70.5t-70.5 -193.5v-119z" />
<glyph unicode="&#x178;" horiz-adv-x="944" d="M23 1415q0 16 10 28.5t28 12.5q27 0 37 -20l375 -699l373 699q10 20 37 20q16 0 27.5 -11t11.5 -28q0 -12 -4 -20l-406 -750v-627q0 -17 -12 -28.5t-27 -11.5q-17 0 -29 11.5t-12 28.5v627l-405 750q-4 8 -4 18zM256 1769q0 25 16 41.5t39 16.5q25 0 41.5 -16.5 t16.5 -41.5q0 -23 -16.5 -39t-41.5 -16q-23 0 -39 16t-16 39zM573 1769q0 25 16.5 41.5t41.5 16.5q23 0 39 -16.5t16 -41.5q0 -23 -16 -39t-39 -16q-25 0 -41.5 16t-16.5 39z" />
<glyph unicode="&#x2c6;" horiz-adv-x="808" d="M166 1286q0 20 16 31l185 127q15 12 36 12q24 0 39 -12l183 -127q16 -11 16 -31q0 -17 -10.5 -27t-26.5 -10q-11 0 -22 8l-179 121l-176 -121q-12 -8 -22 -8q-18 0 -28.5 10.5t-10.5 26.5z" />
<glyph unicode="&#x2dc;" horiz-adv-x="808" d="M143 1350q0 15 11 26q70 80 155 80q58 0 121 -45q39 -27 70 -27q59 0 98 52q13 16 31 16q17 0 27 -11.5t10 -27.5q0 -9 -9 -22q-67 -80 -157 -80q-63 0 -119 43q-35 28 -72 28q-58 0 -96 -51q-14 -18 -33 -18q-16 0 -26.5 11.5t-10.5 25.5z" />
<glyph unicode="&#x2000;" horiz-adv-x="982" />
<glyph unicode="&#x2001;" horiz-adv-x="1964" />
<glyph unicode="&#x2002;" horiz-adv-x="982" />
<glyph unicode="&#x2003;" horiz-adv-x="1964" />
<glyph unicode="&#x2004;" horiz-adv-x="654" />
<glyph unicode="&#x2005;" horiz-adv-x="491" />
<glyph unicode="&#x2006;" horiz-adv-x="327" />
<glyph unicode="&#x2007;" horiz-adv-x="327" />
<glyph unicode="&#x2008;" horiz-adv-x="245" />
<glyph unicode="&#x2009;" horiz-adv-x="392" />
<glyph unicode="&#x200a;" horiz-adv-x="109" />
<glyph unicode="&#x2010;" horiz-adv-x="813" d="M135 604q0 17 11.5 28t27.5 11h465q15 0 27 -12t12 -27t-12 -26t-27 -11h-465q-16 0 -27.5 10t-11.5 27z" />
<glyph unicode="&#x2011;" horiz-adv-x="813" d="M135 604q0 17 11.5 28t27.5 11h465q15 0 27 -12t12 -27t-12 -26t-27 -11h-465q-16 0 -27.5 10t-11.5 27z" />
<glyph unicode="&#x2012;" horiz-adv-x="813" d="M135 604q0 17 11.5 28t27.5 11h465q15 0 27 -12t12 -27t-12 -26t-27 -11h-465q-16 0 -27.5 10t-11.5 27z" />
<glyph unicode="&#x2013;" horiz-adv-x="1519" d="M270 604q0 17 11.5 28t27.5 11h901q15 0 27 -12t12 -27t-12 -26t-27 -11h-901q-16 0 -27.5 10t-11.5 27z" />
<glyph unicode="&#x2014;" horiz-adv-x="2394" d="M270 604q0 17 11.5 28t27.5 11h1776q15 0 27 -12t12 -27t-12 -26t-27 -11h-1776q-16 0 -27.5 10t-11.5 27z" />
<glyph unicode="&#x2018;" horiz-adv-x="382" d="M123 1118q0 6 2 12l98 300q10 26 39 26q14 0 26.5 -11.5t12.5 -27.5q0 -8 -2 -14l-98 -297q-10 -27 -39 -27q-16 0 -27.5 11t-11.5 28z" />
<glyph unicode="&#x2019;" horiz-adv-x="382" d="M82 1118q0 6 2 12l98 300q10 26 39 26q14 0 26.5 -11.5t12.5 -27.5q0 -8 -2 -14l-98 -297q-10 -27 -39 -27q-16 0 -27.5 11t-11.5 28z" />
<glyph unicode="&#x201a;" horiz-adv-x="382" d="M123 -211q0 8 2 12l98 291q10 27 39 27q16 0 27.5 -11t11.5 -28q0 -10 -2 -14l-98 -291q-10 -27 -39 -27q-15 0 -27 12t-12 29z" />
<glyph unicode="&#x201c;" horiz-adv-x="657" d="M123 1118q0 6 2 12l102 300q10 26 37 26q17 0 28 -13t11 -28q0 -8 -2 -12l-100 -297q-10 -27 -39 -27q-18 0 -28.5 12t-10.5 27zM393 1118q0 6 2 12l103 300q10 26 39 26q15 0 26.5 -12t11.5 -29q0 -6 -2 -12l-102 -297q-10 -27 -37 -27q-16 0 -28.5 10.5t-12.5 28.5z " />
<glyph unicode="&#x201d;" horiz-adv-x="657" d="M82 1118q0 6 2 12l102 300q10 26 37 26q17 0 28 -13t11 -28q0 -8 -2 -12l-100 -297q-10 -27 -39 -27q-18 0 -28.5 12t-10.5 27zM352 1118q0 6 2 12l103 300q10 26 39 26q15 0 27 -12t12 -29q0 -3 -3 -12l-102 -297q-10 -27 -37 -27q-16 0 -28.5 10.5t-12.5 28.5z" />
<glyph unicode="&#x201e;" horiz-adv-x="655" d="M123 -211q0 6 2 12l98 291q10 27 39 27q18 0 28.5 -12t10.5 -27q0 -8 -2 -14l-98 -291q-10 -27 -39 -27q-17 0 -28 13t-11 28zM393 -211q0 6 2 12l101 291q3 12 13.5 19.5t22.5 7.5q18 0 29.5 -10.5t11.5 -30.5q0 -6 -2 -12l-100 -291q-10 -27 -37 -27q-16 0 -28.5 11.5 t-12.5 29.5z" />
<glyph unicode="&#x2022;" horiz-adv-x="985" d="M360 647q0 54 39.5 92.5t94.5 38.5q54 0 92.5 -38.5t38.5 -92.5q0 -55 -38.5 -94t-92.5 -39q-56 0 -95 39t-39 94z" />
<glyph unicode="&#x2026;" horiz-adv-x="1579" d="M168 49q0 28 19 48t46 20q28 0 48 -20t20 -48q0 -27 -20 -46t-48 -19t-46.5 18.5t-18.5 46.5zM723 49q0 28 20 48t48 20q27 0 46 -20t19 -48t-18.5 -46.5t-46.5 -18.5t-48 19t-20 46zM1280 49q0 28 19 48t47 20q27 0 46 -20t19 -48t-18.5 -46.5t-46.5 -18.5t-47 18.5 t-19 46.5z" />
<glyph unicode="&#x202f;" horiz-adv-x="392" />
<glyph unicode="&#x2039;" horiz-adv-x="604" d="M135 512q0 24 12 39l248 346q13 16 33 16q16 0 28.5 -12t12.5 -29q0 -11 -8 -22l-244 -338l244 -336q8 -11 8 -24q0 -14 -13 -26.5t-28 -12.5q-20 0 -33 16l-248 346q-12 15 -12 37z" />
<glyph unicode="&#x203a;" horiz-adv-x="604" d="M135 152q0 13 8 24l244 336l-244 338q-8 11 -8 22q0 17 12.5 29t28.5 12q20 0 33 -16l248 -346q12 -15 12 -39q0 -22 -12 -37l-248 -346q-13 -16 -33 -16q-15 0 -28 12.5t-13 26.5z" />
<glyph unicode="&#x205f;" horiz-adv-x="491" />
<glyph unicode="&#x20ac;" d="M59 571q0 15 12 27t27 12h146v230h-146q-16 0 -27.5 11t-11.5 28t11.5 28t27.5 11h146v75q0 209 127 336q130 127 338 127q145 0 278 -86q19 -13 19 -33q0 -15 -12 -27t-27 -12q-11 0 -25 9q-113 73 -233 73q-178 0 -280.5 -103t-102.5 -280v-79h409q15 0 27 -12t12 -27 t-12 -27t-27 -12h-409v-230h409q15 0 27 -12t12 -27t-12 -27t-27 -12h-409v-94q0 -177 102.5 -280t280.5 -103q119 0 237 76q9 6 21 6q14 0 26.5 -11.5t12.5 -27.5q0 -19 -19 -32q-133 -86 -278 -86q-210 0 -336 126q-129 129 -129 336v90h-146q-15 0 -27 12t-12 27z" />
<glyph unicode="&#x2122;" horiz-adv-x="1650" d="M90 1401q0 14 10 24.5t23 10.5h463q14 0 24.5 -11t10.5 -24t-10.5 -23t-24.5 -10h-195v-704q0 -15 -10.5 -26t-24.5 -11q-15 0 -26 11t-11 26v704h-196q-13 0 -23 10t-10 23zM815 664v741q0 18 12.5 30.5t30.5 12.5q11 0 22 -8.5t15 -16.5l248 -483l246 481q13 27 38 27 q18 0 30.5 -12.5t12.5 -30.5v-741q0 -15 -9.5 -26t-24.5 -11t-25 11t-10 26v622l-219 -420q-14 -24 -39 -24q-27 0 -39 24l-217 420v-622q0 -15 -11 -26t-26 -11t-25 11t-10 26z" />
<glyph unicode="&#x25fc;" horiz-adv-x="1034" d="M0 0v1034h1034v-1034h-1034z" />
</font>
</defs>
</svg>
