<?xml version="1.0" standalone="no"?>
<!DOCTYPE svg PUBLIC "-//W3C//DTD SVG 1.1//EN" "http://www.w3.org/Graphics/SVG/1.1/DTD/svg11.dtd" >
<svg xmlns="http://www.w3.org/2000/svg">
<metadata></metadata>
<defs>
<font id="ardoise_ptfregular" horiz-adv-x="1105" >
<font-face units-per-em="2048" ascent="1638" descent="-410" />
<missing-glyph horiz-adv-x="552" />
<glyph unicode="&#xfb01;" horiz-adv-x="1128" d="M68 893v123l122 16v152q0 165 109.5 248.5t306.5 83.5q186 0 328 -76l18 -113q-153 57 -311 57q-272 0 -272 -219v-133h581v-1032h-180v893h-401v-893h-179v893h-122z" />
<glyph unicode="&#xfb02;" horiz-adv-x="1128" d="M68 893v123l122 16v152q0 153 101 242.5t270 89.5q127 0 242 -50h4l143 50v-1516h-180v1362q-75 22 -158 22q-243 0 -243 -219v-133h262l-13 -139h-249v-893h-179v893h-122z" />
<glyph unicode="&#xfb03;" horiz-adv-x="1708" d="M68 893v123l122 16v135q0 160 106 244t296 84q145 0 295 -65q109 86 301 86q187 0 325 -76l21 -113q-153 57 -311 57q-78 0 -133.5 -18t-85 -50.5t-42 -69t-12.5 -81.5v-133h580v-1032h-178v893h-402v-893h-180v893h-401v-893h-179v893h-122zM369 1032h401v144 q0 94 37 155q-78 37 -186 37q-130 0 -191 -52t-61 -165v-119z" />
<glyph unicode="&#xfb04;" horiz-adv-x="1708" d="M68 893v123l122 16v135q0 160 106 244t296 84q149 0 289 -68q98 89 262 89q123 0 241 -50h5l141 50v-1516h-178v1362q-75 22 -158 22q-244 0 -244 -221v-131h262l-12 -139h-250v-893h-180v893h-401v-893h-179v893h-122zM369 1032h401v144q0 91 41 153q-79 39 -190 39 q-130 0 -191 -52t-61 -165v-119z" />
<glyph horiz-adv-x="0" />
<glyph horiz-adv-x="0" />
<glyph horiz-adv-x="682" />
<glyph unicode="&#xd;" horiz-adv-x="0" />
<glyph unicode=" "  horiz-adv-x="552" />
<glyph unicode="&#x09;" horiz-adv-x="552" />
<glyph unicode="&#xa0;" horiz-adv-x="552" />
<glyph unicode="!" horiz-adv-x="512" d="M176 1395l164 14l-16 -1020h-131zM178 0v178h156v-178h-23h-133z" />
<glyph unicode="&#x22;" horiz-adv-x="872" d="M166 1409h180l-24 -479h-132zM526 1409h181l-25 -479h-131z" />
<glyph unicode="#" d="M37 358l10 144h225l39 250h-227l12 143h238l51 334h104l-51 -334h297l51 334h105l-49 -334h229l-12 -143h-240l-39 -250h242l-10 -144h-252l-55 -358h-105l53 358h-297l-53 -358h-104l51 358h-213zM379 502h297l37 250h-297z" />
<glyph unicode="$" d="M121 178q152 -64 356 -67v454q-63 21 -108.5 40t-93.5 49.5t-78 66t-49 87t-19 114.5q0 144 97.5 230t281.5 99v240h119v-238q192 -11 301 -86l12 -116q-140 64 -313 67v-430q69 -23 115 -42t99.5 -51t85 -68t53 -89.5t21.5 -118.5q0 -149 -102 -238t-305 -104v-237h-117 v235q-225 7 -342 86zM297 934q0 -42 15.5 -75.5t47.5 -58.5t65.5 -42.5t82.5 -36.5v393q-211 -19 -211 -180zM594 115q237 18 237 192q0 46 -18 81t-55.5 61.5t-72 43t-91.5 37.5v-415z" />
<glyph unicode="%" horiz-adv-x="1826" d="M94 920q0 234 86.5 356.5t239.5 122.5q317 0 317 -459q0 -234 -85.5 -353.5t-237.5 -119.5q-157 0 -238.5 109t-81.5 344zM240 920q0 -196 42.5 -281.5t131.5 -85.5t133.5 92.5t44.5 294.5q0 194 -42.5 282.5t-129.5 88.5q-180 0 -180 -391zM434 0l830 1382h131 l-832 -1382h-129zM1092 436q0 235 86 357t239 122q318 0 318 -458q0 -234 -86 -353.5t-238 -119.5q-157 0 -238 108.5t-81 343.5zM1237 436q0 -196 42.5 -281t131.5 -85t133.5 92.5t44.5 294.5q0 194 -42.5 282t-129.5 88q-180 0 -180 -391z" />
<glyph unicode="&#x26;" horiz-adv-x="1411" d="M76 387q0 156 81.5 250.5t213.5 112.5v4q-248 70 -248 311q0 161 117.5 252.5t302.5 91.5q87 0 169.5 -20.5t139.5 -53.5l14 -127q-137 52 -260 52q-138 0 -211 -55t-73 -161q0 -116 83.5 -170.5t219.5 -54.5h256v244l178 33v-277h280l-10 -141h-270v-379q0 -94 36 -137 t117 -43q66 0 144 31l-15 -123q-91 -54 -198 -54q-180 0 -238 125h-2q-184 -125 -391 -125q-117 0 -203.5 33.5t-136 92t-73 130.5t-23.5 158zM272 410q0 -132 75 -208.5t222 -76.5q166 0 308 92q-7 44 -7 82v379h-278q-320 0 -320 -268z" />
<glyph unicode="'" horiz-adv-x="512" d="M166 1409h180l-24 -479h-132z" />
<glyph unicode="(" horiz-adv-x="661" d="M88 596q0 241 89.5 465.5t254.5 390.5h141q-147 -159 -235 -388.5t-88 -467.5q0 -239 87.5 -468t235.5 -388h-141q-165 166 -254.5 390.5t-89.5 465.5z" />
<glyph unicode=")" horiz-adv-x="661" d="M88 -260q148 159 236 388t88 468q0 238 -88.5 467.5t-235.5 388.5h143q163 -166 252.5 -391t89.5 -465t-89.5 -465t-252.5 -391h-143z" />
<glyph unicode="*" horiz-adv-x="1024" d="M70 1057l24 78l350 -88l27 362h82l25 -362l352 88l24 -78l-338 -137l193 -308l-66 -47l-231 279l-233 -279l-66 47l193 308z" />
<glyph unicode="+" d="M86 549v131h399v426h133v-426h402v-131h-402v-426h-133v426h-399z" />
<glyph unicode="," horiz-adv-x="552" d="M27 -305q174 162 186 328l-35 172h182q5 -83 5 -123q0 -109 -50 -198.5t-145 -178.5h-143z" />
<glyph unicode="-" horiz-adv-x="552" d="M41 446l8 142h461l-8 -142h-461z" />
<glyph unicode="." horiz-adv-x="552" d="M190 0v195h170v-195h-170z" />
<glyph unicode="/" horiz-adv-x="647" d="M-102 0l720 1382h132l-723 -1382h-129z" />
<glyph unicode="0" d="M70 596q0 312 131 485.5t356 173.5q231 0 355 -156t124 -466q0 -312 -131 -486t-356 -174q-231 0 -355 156.5t-124 466.5zM264 596q0 -246 73.5 -370t211.5 -124q139 0 216 137t77 394q0 246 -73.5 369.5t-211.5 123.5q-139 0 -216 -136.5t-77 -393.5z" />
<glyph unicode="1" d="M180 1001l6 103q168 69 424 131h105v-1114l248 -21v-100h-715v100l278 21v942h-6q-130 -13 -340 -62z" />
<glyph unicode="2" d="M94 0v135q148 110 238 181t171.5 145.5t123 132t65 118.5t23.5 126q0 126 -81.5 197t-211.5 71q-143 0 -289 -70l14 125q161 94 338 94q116 0 212 -41t158.5 -130t62.5 -212q0 -47 -9 -91.5t-22.5 -83.5t-40 -80t-51.5 -74.5t-68 -75t-78 -73t-93 -76.5t-101.5 -77.5 t-114.5 -84.5v-2h682l-23 -154h-905z" />
<glyph unicode="3" d="M117 29q147 -62 305 -62q175 0 262.5 67.5t87.5 196.5q0 118 -83.5 179t-244.5 61h-182v139h158q133 0 218 68.5t85 191.5q0 105 -75 170.5t-206 65.5q-134 0 -288 -62l14 125q146 86 338 86q86 0 161 -22t133.5 -64.5t92 -111.5t33.5 -156q0 -125 -68 -214t-186 -130v-4 q136 -20 219.5 -106t83.5 -234q0 -176 -127.5 -285.5t-374.5 -109.5q-96 0 -185 23t-153 63z" />
<glyph unicode="4" d="M39 156v116l641 957h182v-938h199l-17 -135h-182v-310h-186v310h-637zM211 291h465v706h-6q-53 -94 -105 -172z" />
<glyph unicode="5" d="M131 29q147 -62 305 -62q164 0 257 64t93 198q0 73 -29.5 127t-80.5 88t-128 54.5t-162 28.5t-193 8l36 694h719l-22 -162h-561l-23 -391q145 -2 259.5 -26.5t203 -76.5t135.5 -139t47 -205q0 -187 -126.5 -299t-373.5 -112q-93 0 -184 23t-156 63z" />
<glyph unicode="6" d="M113 635q0 113 16.5 218.5t56.5 208t100 178.5t154 122.5t211 46.5q180 0 312 -86l18 -125q-127 62 -281 62q-84 0 -151 -29.5t-110.5 -78.5t-72.5 -117.5t-42.5 -140t-16.5 -153.5h2q182 113 355 113q165 0 269.5 -110.5t104.5 -309.5q0 -148 -60.5 -254t-163 -156.5 t-236.5 -50.5q-109 0 -192 36t-134 95t-83 146.5t-44 180t-12 204.5zM305 614q-1 -94 4.5 -166.5t23.5 -139.5t47.5 -110.5t79 -69.5t115.5 -26q126 0 196.5 81.5t70.5 230.5q0 138 -66 212t-188 74q-135 0 -283 -86z" />
<glyph unicode="7" d="M143 823v404h875v-148q-147 -317 -299.5 -680.5t-212.5 -554.5h-209l551 1219h-567l-25 -240h-113z" />
<glyph unicode="8" d="M96 332q0 140 75.5 230t221.5 161v2q-45 25 -78 46.5t-70 54t-60 66t-38.5 80t-15.5 99.5q0 155 114 246.5t320 91.5q184 0 298 -84t114 -235q0 -64 -19 -115t-59 -92t-82 -70t-106 -63v-5q155 -72 227 -158t72 -227q0 -180 -125 -283.5t-340 -103.5q-130 0 -229.5 38.5 t-159.5 121t-60 199.5zM262 338q0 -108 78.5 -172t204.5 -64q134 0 208 67.5t74 184.5q0 103 -72 171t-227 130q-65 -30 -109 -58t-82 -66t-56.5 -85.5t-18.5 -107.5zM313 1075q0 -89 63.5 -146t205.5 -120q127 63 182 121t55 149q0 94 -72 147.5t-180 53.5 q-129 0 -191.5 -55t-62.5 -150z" />
<glyph unicode="9" d="M39 795q0 221 127.5 340.5t333.5 119.5q109 0 192 -35.5t134 -95t83 -146.5t44 -179.5t12 -204.5q0 -93 -12 -182t-37 -177.5t-68.5 -162t-101 -131t-140 -89.5t-180.5 -32q-179 0 -311 86l-19 125q127 -62 281 -62q84 0 151 29.5t110.5 78t72.5 117t42.5 140t16.5 153.5 h-2q-180 -112 -354 -112q-166 0 -270.5 110.5t-104.5 309.5zM236 815q0 -138 65.5 -212.5t187.5 -74.5q135 0 283 86q1 94 -4.5 166.5t-23.5 139.5t-47.5 110.5t-79 69.5t-115.5 26q-126 0 -196 -81t-70 -230z" />
<glyph unicode=":" horiz-adv-x="552" d="M190 0v195h170v-195h-24h-146zM190 838v194h170v-194h-170z" />
<glyph unicode=";" horiz-adv-x="552" d="M27 -305q174 162 186 328l-35 172h182q5 -83 5 -123q0 -109 -50 -198.5t-145 -178.5h-143zM190 838v194h170v-194h-170z" />
<glyph unicode="&#x3c;" d="M86 551v127l934 364v-151l-735 -275v-4l735 -272v-154z" />
<glyph unicode="=" d="M86 326v131h934v-131h-934zM86 774v131h934v-131h-934z" />
<glyph unicode="&#x3e;" d="M86 186v154l733 272v4l-733 275v151l934 -364v-127z" />
<glyph unicode="?" horiz-adv-x="868" d="M78 1198l14 125q138 86 307 86q70 0 135 -19.5t121.5 -58.5t90.5 -107.5t34 -156.5q0 -59 -18.5 -113.5t-47 -96.5t-74.5 -87t-88 -78.5t-101 -78.5q-15 -11 -23 -17l-10 -207h-131l-15 248q64 47 104 79.5t83.5 74.5t67.5 77.5t39.5 78.5t15.5 89q0 106 -71.5 165 t-180.5 59q-122 0 -252 -62zM272 0v178h156v-178h-156z" />
<glyph unicode="@" horiz-adv-x="1521" d="M47 471q0 131 30 248.5t92.5 216.5t151.5 171t214 112.5t274 40.5q318 0 486.5 -154t168.5 -440q0 -252 -118 -410t-287 -158q-150 0 -172 123h-4q-159 -123 -281 -123q-113 0 -171 87.5t-58 230.5q0 82 15 164t49 162t84 140.5t126 98t168 37.5q113 0 219 -64h2l23 39 h86l-113 -645q-4 -50 -4 -65q0 -78 74 -78q104 0 176 128t72 326q0 259 -139.5 380.5t-407.5 121.5q-154 0 -274.5 -52.5t-197 -146t-116 -219t-39.5 -276.5q0 -271 147 -408t459 -137q280 0 518 98l-28 -98q-99 -50 -237.5 -77t-278.5 -27q-709 0 -709 653zM518 438 q0 -60 12.5 -107.5t46.5 -81.5t87 -34q91 0 227 109l98 548q-71 41 -147 41q-70 0 -126.5 -30t-92.5 -78.5t-60.5 -112t-34.5 -127t-10 -127.5z" />
<glyph unicode="A" horiz-adv-x="1290" d="M41 0l485 1382h244l481 -1382h-207l-135 389h-547l-135 -389h-186zM406 532h458l-100 289q-84 246 -125 400h-4q-39 -141 -129 -400z" />
<glyph unicode="B" horiz-adv-x="1292" d="M197 0v1382h452q73 0 137.5 -10.5t125 -35.5t103.5 -63.5t69 -98.5t26 -136q0 -123 -79.5 -203.5t-196.5 -103.5v-2q156 -9 255 -98t99 -240q0 -182 -132.5 -286.5t-383.5 -104.5h-475zM393 131h223q361 0 361 272q0 124 -91.5 186t-248.5 62h-244v-520zM393 786h234 q53 0 101 13t89 40t65.5 74t24.5 109q0 229 -311 229h-203v-465z" />
<glyph unicode="C" horiz-adv-x="1185" d="M74 688q0 146 38.5 273.5t114.5 228.5t201 160t285 59q199 0 342 -84v-362h-117l-31 268q-79 33 -178 33q-211 0 -326.5 -151t-115.5 -413q0 -126 29.5 -228.5t89 -180t157 -120t225.5 -42.5q178 0 326 80l-18 -133q-155 -103 -377 -103q-204 0 -350.5 89.5t-220.5 249.5 t-74 376z" />
<glyph unicode="D" horiz-adv-x="1417" d="M197 0v1382h467q677 0 677 -680q0 -152 -40.5 -277.5t-121.5 -221.5t-212.5 -149.5t-302.5 -53.5h-467zM393 137h244q246 0 369.5 147.5t123.5 415.5q0 271 -119 408t-374 137h-244v-1108z" />
<glyph unicode="E" horiz-adv-x="1142" d="M197 0v1382h802l15 -143h-621v-448h574v-144h-574v-504h668l-14 -143h-850z" />
<glyph unicode="F" horiz-adv-x="1089" d="M197 0v1382h802l15 -143h-621v-494h574v-143h-574v-602h-196z" />
<glyph unicode="G" horiz-adv-x="1310" d="M74 686q0 158 42.5 289.5t123.5 228.5t208 151t289 54q113 0 214.5 -27.5t172.5 -74.5l21 -133q-149 79 -344 79q-257 0 -385.5 -154t-128.5 -419q0 -130 26.5 -231t82.5 -177t150 -116.5t222 -40.5q115 0 221 37v374l-213 21v117h406v-621q-200 -70 -426 -70 q-153 0 -272 38t-195 102.5t-125.5 157.5t-69.5 194t-20 221z" />
<glyph unicode="H" horiz-adv-x="1470" d="M197 0v1382h196v-591h684v591h197v-1382h-197v647h-684v-647h-196z" />
<glyph unicode="I" horiz-adv-x="589" d="M197 0v1382h196v-1382h-196z" />
<glyph unicode="J" horiz-adv-x="798" d="M51 158q79 -33 152 -33q103 0 155 54.5t52 176.5v1026h196v-1056q0 -160 -80.5 -256.5t-249.5 -96.5q-112 0 -204 52z" />
<glyph unicode="K" horiz-adv-x="1308" d="M197 0v1382h196v-591q133 0 170 -3l445 594h223l-498 -637v-4q80 -34 138 -104t118 -188l236 -449h-219l-205 393q-80 156 -137 205t-150 49h-121v-647h-196z" />
<glyph unicode="L" horiz-adv-x="1079" d="M197 0v1382h196v-1239h639l-14 -143h-821z" />
<glyph unicode="M" horiz-adv-x="1685" d="M176 0l45 1382h242l287 -680q73 -195 92 -260h4q54 165 90 260l283 680h241l49 -1382h-194l-31 831q-2 78 -2 250h-4q-34 -99 -92 -241l-260 -615h-187l-264 613q-59 142 -92 243h-6q0 -170 -2 -250l-27 -831h-172z" />
<glyph unicode="N" horiz-adv-x="1449" d="M197 0v1382h206l523 -835q121 -201 149 -254h4v1089h174v-1382h-204l-547 870q-55 88 -129 211h-2v-1081h-174z" />
<glyph unicode="O" horiz-adv-x="1378" d="M74 670q0 347 163 543t461 196q295 0 451 -175.5t156 -512.5q0 -348 -163.5 -548t-461.5 -200q-293 0 -449.5 180t-156.5 517zM287 674q0 -557 395 -557q201 0 305.5 158t104.5 444q0 545 -396 545q-202 0 -305.5 -153.5t-103.5 -436.5z" />
<glyph unicode="P" horiz-adv-x="1189" d="M197 0v1382h436q104 0 190 -24.5t152.5 -74t103.5 -132t37 -190.5q0 -203 -132.5 -313.5t-354.5 -110.5h-236v-537h-196zM393 668h180q155 0 244.5 75.5t89.5 217.5q0 149 -90.5 219.5t-236.5 70.5h-187v-583z" />
<glyph unicode="Q" horiz-adv-x="1378" d="M74 670q0 347 163 543t461 196q295 0 451 -175.5t156 -512.5q0 -328 -142 -523.5t-403 -217.5q3 -56 15.5 -97t39 -76.5t74.5 -54t117 -18.5q95 0 204 33l-14 -125q-114 -52 -231 -52q-188 0 -274 101.5t-91 288.5q-256 22 -391 198t-135 492zM287 674q0 -565 395 -565 q201 0 305.5 159.5t104.5 450.5q0 555 -396 555q-202 0 -305.5 -156t-103.5 -444z" />
<glyph unicode="R" horiz-adv-x="1329" d="M197 0v1382h462q234 0 354 -100.5t120 -277.5q0 -129 -80 -221.5t-222 -127.5v-4q73 -42 124 -106.5t110 -179.5l195 -365h-218l-170 328q-83 158 -143 214t-151 56h-185v-598h-196zM393 733h219q143 0 228.5 68t85.5 194q0 54 -16.5 98.5t-52 80.5t-98.5 56.5t-149 20.5 h-217v-518z" />
<glyph unicode="S" horiz-adv-x="1024" d="M94 1030q0 178 119 278.5t315 100.5q96 0 184 -24t148 -62l17 -133q-141 67 -314 67q-138 0 -205 -57t-67 -151q0 -63 36 -110.5t93.5 -78.5t126.5 -60t138.5 -64t127 -80t93.5 -118t36 -169q0 -188 -127.5 -292t-343.5 -104q-206 0 -356 88l-19 134q152 -70 338 -70 q162 0 238 65t76 164q0 56 -28 101t-74 74t-105 58t-120 52.5t-120 59.5t-105 77t-74 106.5t-28 147.5z" />
<glyph unicode="T" horiz-adv-x="1179" d="M14 1239l15 143h1122l14 -143h-477v-1239h-196v1239h-478z" />
<glyph unicode="U" horiz-adv-x="1413" d="M178 426v956h197v-915q0 -82 14 -140.5t50 -108.5t105.5 -75.5t172.5 -25.5q344 0 344 348v917h174v-956q0 -99 -30 -179.5t-92 -142.5t-165 -96.5t-241 -34.5q-123 0 -217.5 24.5t-152.5 65.5t-94.5 100.5t-50.5 123t-14 139.5z" />
<glyph unicode="V" horiz-adv-x="1249" d="M41 1382h207l262 -807q7 -23 38.5 -119t50 -157.5t34.5 -122.5h2q17 61 37 126.5t48.5 151t39.5 121.5l262 807h186l-467 -1382h-239z" />
<glyph unicode="W" horiz-adv-x="1898" d="M59 1382h205l193 -747q61 -249 92 -412h6q35 184 94 412l209 747h207l205 -747q6 -26 30 -120.5t39.5 -161t28.5 -130.5h2q60 271 94 412l191 747h186l-358 -1382h-226l-204 696q-82 316 -103 414h-2q-48 -210 -102 -416l-207 -694h-225z" />
<glyph unicode="X" horiz-adv-x="1259" d="M63 0l424 711l-411 671h221l334 -534h2l309 534h209l-399 -665l444 -717h-223l-361 584h-2l-338 -584h-209z" />
<glyph unicode="Y" horiz-adv-x="1239" d="M63 1382h224l340 -675h2l344 675h203l-457 -860v-522h-199v522z" />
<glyph unicode="Z" horiz-adv-x="1230" d="M82 0v133l803 1102h-740l17 147h971v-141l-807 -1094h823l-16 -147h-1051z" />
<glyph unicode="[" horiz-adv-x="661" d="M119 -260v1712h416l8 -90h-275v-1532h275l-8 -90h-416z" />
<glyph unicode="\" horiz-adv-x="647" d="M-102 1382h129l723 -1382h-132z" />
<glyph unicode="]" horiz-adv-x="661" d="M119 -170h274v1532h-274l8 90h416v-1712h-416z" />
<glyph unicode="^" d="M125 422l364 901h127l365 -901h-154l-272 717h-4l-275 -717h-151z" />
<glyph unicode="_" d="M0 -410l8 119h1098l-8 -119h-1098z" />
<glyph unicode="`" horiz-adv-x="1077" d="M299 1516h207q102 -169 270 -381h-160q-167 174 -317 381z" />
<glyph unicode="a" horiz-adv-x="1075" d="M84 268q0 159 99.5 245.5t303.5 86.5q119 0 248 -37v154q0 102 -63.5 151.5t-194.5 49.5t-291 -62l15 117q61 38 151 62t189 24q176 0 275 -76t99 -242v-741h-161l-13 90h-4q-106 -60 -182.5 -88.5t-165.5 -28.5q-131 0 -218 79t-87 216zM258 289q0 -78 52 -128t147 -50 q70 0 134 22.5t144 67.5v252q-98 28 -207 28q-270 0 -270 -192z" />
<glyph unicode="b" horiz-adv-x="1153" d="M178 0v1493l178 23v-572h2q93 56 168.5 85.5t159.5 29.5q183 0 292 -137.5t109 -384.5q0 -265 -126.5 -414.5t-354.5 -149.5q-158 0 -287 82h-6l-24 -55h-111zM356 162q96 -49 203 -49q158 0 248 102t90 309q0 185 -78.5 282t-202.5 97q-66 0 -123.5 -22t-136.5 -68v-651 z" />
<glyph unicode="c" horiz-adv-x="913" d="M63 514q0 92 16 172t52.5 149t90 118.5t133 77.5t177.5 28q152 0 271 -72v-280h-105l-22 190q-62 25 -127 25q-82 0 -141 -33t-91 -91.5t-46.5 -127.5t-14.5 -152q0 -188 82.5 -293.5t245.5 -105.5q121 0 250 59l-15 -119q-125 -86 -307 -86q-111 0 -197.5 40.5t-141 113 t-82.5 170.5t-28 217z" />
<glyph unicode="d" horiz-adv-x="1153" d="M63 496q0 257 127 410t357 153q136 0 248 -64v498l180 23v-1516h-160l-10 94h-4q-97 -59 -173.5 -90t-160.5 -31q-183 0 -293.5 138.5t-110.5 384.5zM256 508q0 -186 78 -282.5t203 -96.5q66 0 124 22.5t134 67.5v651q-95 50 -201 50q-158 0 -248 -102.5t-90 -309.5z" />
<glyph unicode="e" horiz-adv-x="1005" d="M63 520q0 246 118.5 392.5t338.5 146.5q91 0 165.5 -25t132 -76.5t89 -136.5t31.5 -198q0 -68 -8 -117h-674v-12q0 -52 8 -100q8 -53 32.5 -105t63 -89t102.5 -60t146 -23q150 0 295 61l-14 -119q-58 -39 -148.5 -62.5t-183.5 -23.5q-235 0 -364.5 138t-129.5 409z M258 627h500q1 16 1 30q0 131 -56 203q-62 80 -179 80q-126 0 -191 -85.5t-75 -227.5z" />
<glyph unicode="f" horiz-adv-x="632" d="M68 893v123l122 16v166q0 143 83 230.5t241 87.5q126 0 211 -54l18 -112q-85 34 -165 34q-209 0 -209 -202v-150h286l-12 -139h-274v-893h-179v893h-122z" />
<glyph unicode="g" horiz-adv-x="1069" d="M125 -168q0 85 59 148l148 12q-41 -61 -41 -125q0 -158 295 -158q148 0 229.5 50t81.5 151q0 75 -50 113t-130 38h-318q-274 0 -274 187q0 117 111 223q-109 83 -109 246q0 160 105.5 251t295.5 91q96 0 185 -27h350l-12 -121l-209 13v-2q76 -66 76 -183 q0 -162 -102 -254t-292 -92q-103 0 -186 39q-64 -67 -64 -125q0 -56 44.5 -77t134.5 -21h295q143 0 226 -69t83 -203q0 -89 -38 -156.5t-106 -108.5t-156 -61.5t-194 -20.5q-438 0 -438 242zM301 719q0 -98 59.5 -154.5t163.5 -56.5q106 0 161.5 60t55.5 169q0 98 -56 152.5 t-159 54.5q-106 0 -165.5 -59.5t-59.5 -165.5z" />
<glyph unicode="h" horiz-adv-x="1183" d="M178 0v1493l178 23v-574h4q96 58 171 87.5t165 29.5q131 0 224 -72q64 -51 84 -122.5t20 -192.5v-672h-180v635q0 50 -2.5 81t-17 69t-42.5 63q-61 55 -159 55q-71 0 -131 -22.5t-136 -67.5v-813h-178z" />
<glyph unicode="i" horiz-adv-x="534" d="M172 1354v162h190v-162h-190zM178 0v1032h178v-1032h-18h-160z" />
<glyph unicode="j" horiz-adv-x="534" d="M20 -287q90 10 124 51.5t34 122.5v1145h178v-1145q0 -64 -14 -112.5t-48 -90t-96.5 -65.5t-152.5 -29zM172 1354v162h190v-162h-190z" />
<glyph unicode="k" horiz-adv-x="1083" d="M178 0v1493l178 23v-904q100 0 123 -2l328 422h190l-368 -463v-4q70 -29 114 -81t88 -146l177 -338h-197l-147 285q-57 117 -103.5 154.5t-114.5 37.5h-90v-477h-178z" />
<glyph unicode="l" horiz-adv-x="534" d="M178 0v1493l178 23v-1516h-178z" />
<glyph unicode="m" horiz-adv-x="1849" d="M178 0v1032h160l10 -94h4q94 58 173.5 89.5t170.5 31.5q131 0 224 -72q40 -32 59 -69q125 75 209 108t176 33q132 0 221 -72q65 -51 85 -122t20 -193v-672h-179v635q0 51 -2.5 81t-17 68.5t-43.5 63.5q-61 55 -160 55q-70 0 -135.5 -25t-144.5 -75q16 -60 16 -156v-647 h-180v635q0 50 -2.5 81t-17 69t-42.5 63q-61 55 -159 55q-71 0 -131 -22.5t-136 -67.5v-813h-178z" />
<glyph unicode="n" horiz-adv-x="1204" d="M178 0v1032h160l10 -94h4q98 58 180 89.5t177 31.5q137 0 227 -72q67 -51 87.5 -122.5t20.5 -192.5v-672h-180v635q0 55 -2 82.5t-17 66.5t-46 64q-61 55 -166 55q-74 0 -135 -22t-142 -68v-813h-178z" />
<glyph unicode="o" horiz-adv-x="1093" d="M63 496q0 271 129.5 417t360.5 146q229 0 353 -130.5t124 -389.5q0 -270 -128.5 -418t-358.5 -148t-355 131.5t-125 391.5zM256 502q0 -193 73.5 -294.5t213.5 -101.5q141 0 219 113t78 313q0 193 -74.5 293.5t-214.5 100.5t-217.5 -112t-77.5 -312z" />
<glyph unicode="p" horiz-adv-x="1153" d="M178 -410v1442h160l10 -94h4q97 59 173.5 90t160.5 31q183 0 292 -137.5t109 -384.5q0 -265 -126.5 -414.5t-354.5 -149.5q-138 0 -250 64v-424zM356 162q96 -49 203 -49q158 0 248 102t90 309q0 185 -78.5 282t-202.5 97q-66 0 -123.5 -22t-136.5 -68v-651z" />
<glyph unicode="q" horiz-adv-x="1153" d="M63 496q0 265 127.5 414t356.5 149q158 0 287 -82h4l26 55h111v-1495l-180 -20v571h-2q-94 -56 -168.5 -85.5t-157.5 -29.5q-183 0 -293.5 138.5t-110.5 384.5zM256 508q0 -186 78 -282.5t203 -96.5q66 0 124 22.5t134 67.5v651q-95 50 -201 50q-158 0 -248 -102.5 t-90 -309.5z" />
<glyph unicode="r" horiz-adv-x="755" d="M178 0v1032h160l10 -94h4q98 61 163 91t126 30q42 0 80 -17l10 -163q-37 12 -88 12q-68 0 -133.5 -22.5t-153.5 -69.5v-799h-178z" />
<glyph unicode="s" horiz-adv-x="868" d="M88 764q0 138 102 216.5t277 78.5q153 0 258 -62l8 -112q-115 39 -250 39q-105 0 -160 -38.5t-55 -109.5q0 -44 29 -76.5t75.5 -54t103 -41.5t112.5 -46t102.5 -60.5t75.5 -91.5t29 -132q0 -146 -102.5 -223.5t-274.5 -77.5q-188 0 -312 62l-10 112q125 -41 287 -41 q113 0 174 37t61 123q0 42 -23 74.5t-60 53t-84.5 40.5t-97.5 36.5t-97.5 42.5t-84.5 57t-60 81t-23 113z" />
<glyph unicode="t" horiz-adv-x="712" d="M53 893v123l121 16v221l180 31v-252h287l-12 -139h-275v-594q0 -97 38 -141.5t120 -44.5q68 0 143 30l-14 -116q-91 -54 -199 -54q-268 0 -268 287v633h-121z" />
<glyph unicode="u" horiz-adv-x="1183" d="M160 360v672h178v-635q0 -51 2.5 -81t17 -68.5t43.5 -63.5q61 -55 160 -55q71 0 130.5 22.5t133.5 67.5v813h181v-1032h-160l-10 94h-5q-98 -59 -176 -90t-170 -31q-132 0 -221 72q-65 51 -84.5 121.5t-19.5 193.5z" />
<glyph unicode="v" horiz-adv-x="970" d="M25 1032h190l191 -575q68 -225 88 -314h4q27 108 90 314l190 575h168l-344 -1032h-231z" />
<glyph unicode="w" horiz-adv-x="1546" d="M47 1032h184l148 -565q44 -179 65 -299h2q42 184 74 299l162 565h211l158 -565q38 -147 73 -301h2q8 46 18.5 94.5t25.5 111t22 95.5l147 565h164l-282 -1032h-217l-154 541q-7 32 -34 141t-40 168h-4q-36 -163 -76 -311l-153 -539h-213z" />
<glyph unicode="x" horiz-adv-x="976" d="M35 0l325 537l-321 495h207l246 -389h4l237 389h176l-305 -500l338 -532h-207l-266 420h-4l-254 -420h-176z" />
<glyph unicode="y" horiz-adv-x="976" d="M14 1032h195l233 -551q57 -143 99 -291h2q41 170 78 302l157 540h168l-325 -1085q-27 -89 -58.5 -151.5t-76.5 -110.5t-106.5 -71.5t-141.5 -23.5q-64 0 -138 27l-16 123q61 -14 123 -14q95 0 147 51t86 162l19 61z" />
<glyph unicode="z" horiz-adv-x="948" d="M98 0v133l543 762h-512l12 137h727v-135l-544 -760h555l-11 -137h-770z" />
<glyph unicode="{" horiz-adv-x="661" d="M39 580v32l172 156q0 52 -5 188.5t-5 208.5q0 161 101.5 224t303.5 63l8 -90q-78 0 -130 -16t-80 -49t-39 -75t-11 -104v-366l-176 -154v-4l176 -154v-366q0 -62 11 -104t39 -75t80 -49t130 -16l-8 -90q-202 0 -303.5 63t-101.5 224q0 72 5 208.5t5 188.5z" />
<glyph unicode="|" horiz-adv-x="552" d="M217 -401v1998l119 -8v-1999z" />
<glyph unicode="}" horiz-adv-x="661" d="M47 -170q79 0 131.5 16t80.5 49t39 75t11 104v366l174 154v4l-174 154v366q0 62 -11 104t-39 75t-80.5 49t-131.5 16l8 90q99 0 170 -13t127 -45t83.5 -89t27.5 -140q0 -72 -5 -208.5t-5 -188.5l170 -156v-32l-170 -156q0 -52 5 -188.5t5 -208.5q0 -83 -27.5 -140 t-83.5 -89t-127 -45t-170 -13z" />
<glyph unicode="~" d="M94 489v144q100 115 238 115q52 0 114.5 -20.5t111 -45.5t108 -45.5t106.5 -20.5q77 0 130.5 32t109.5 97v-143q-102 -117 -238 -117q-51 0 -113.5 21t-111 45.5t-108 45.5t-107.5 21q-75 0 -129 -32.5t-111 -96.5z" />
<glyph unicode="&#xa0;" />
<glyph unicode="&#xa1;" horiz-adv-x="512" d="M174 -403l16 1019h132l16 -1005zM180 827v179h17h137v-179h-154z" />
<glyph unicode="&#xa2;" d="M113 608q0 97 19.5 186.5t61.5 169.5t102.5 141.5t147 100.5t189.5 47v238h119v-244q157 -9 249 -80l17 -129q-127 65 -266 68v-985q165 3 284 69l-16 -129q-41 -34 -113.5 -55t-154.5 -24v-242h-119v235q-248 17 -384 186.5t-136 446.5zM301 610q0 -194 81.5 -320.5 t250.5 -154.5v959q-111 -19 -187.5 -90.5t-110.5 -171.5t-34 -222z" />
<glyph unicode="&#xa3;" d="M92 555v127h137q-55 117 -55 219q0 168 125 261t315 93q196 0 330 -94l17 -125q-141 72 -299 72q-143 0 -218 -60t-75 -169q0 -89 53 -197h471v-127h-414q1 -4 6.5 -19t7 -19t6.5 -19t6 -19.5t5 -19.5t4 -19.5t3 -19.5t1.5 -19.5t-0.5 -19.5q-2 -34 -14 -64t-37.5 -61.5 t-46 -52.5t-60.5 -58v-2h693l-23 -143h-891v123q99 82 142 136.5t49 115.5q2 76 -45 180h-193z" />
<glyph unicode="&#xa4;" d="M147 926l97 94l133 -133q74 55 174 55q94 0 176 -55l117 117l94 -95l-117 -116q56 -78 56 -177t-56 -174l135 -135l-94 -94l-137 135q-74 -55 -174 -55q-97 0 -176 53l-115 -113l-92 93l115 114q-56 78 -56 176q0 100 56 175zM344 616q0 -90 58.5 -150t148.5 -60 t148.5 60t58.5 150q0 91 -58.5 152t-148.5 61t-148.5 -61t-58.5 -152z" />
<glyph unicode="&#xa5;" d="M55 1229h193l323 -633l297 633h166l-270 -547h276v-111h-327l-58 -114v-78h385v-111h-385v-268h-188v268h-389v111h389v78l-64 114h-325v111h268z" />
<glyph unicode="&#xa6;" horiz-adv-x="552" d="M217 -399v839l119 -10v-840zM217 758v405v434l119 -10v-839z" />
<glyph unicode="&#xa7;" horiz-adv-x="964" d="M70 657q0 72 35 133t94 103q-64 41 -96.5 95.5t-32.5 135.5q0 128 103.5 206.5t309.5 78.5q88 0 170.5 -22t139.5 -56l14 -114q-55 25 -136 41t-157 16q-254 0 -254 -152q0 -29 7 -52t26 -42t37.5 -32.5t56 -29.5t65 -25.5t80.5 -27.5q46 -14 77.5 -25.5t72.5 -29 t69 -34.5t57.5 -42t47 -52t28.5 -63t11 -77q0 -74 -37 -133.5t-98 -98.5q135 -87 135 -241q0 -138 -114 -218.5t-322 -80.5q-206 0 -338 78l-15 114q129 -61 312 -61q278 0 278 164q0 28 -7 51t-16 40t-31 33.5t-39 27t-53.5 25t-61 23t-74.5 25.5q-45 15 -70.5 24t-67 26.5 t-66 33.5t-54.5 41t-46.5 51.5t-28 63.5t-11.5 79zM223 702q0 -39 14 -71t32.5 -52.5t57 -41t67.5 -32t83 -30.5q152 -54 191 -72q82 61 82 148q0 47 -17.5 81.5t-57 61.5t-85 46.5t-119.5 43.5q-117 37 -170 62q-78 -58 -78 -144z" />
<glyph unicode="&#xa8;" horiz-adv-x="1077" d="M264 1354v162h160v-162h-160zM653 1354v162h160v-162h-160z" />
<glyph unicode="&#xa9;" horiz-adv-x="1538" d="M74 688q0 345 180 533t514 188q336 0 516 -188t180 -533q0 -344 -180 -529.5t-516 -185.5q-334 0 -514 186t-180 529zM186 690q0 -311 149.5 -470t434.5 -159q282 0 432 159t150 470q0 310 -150.5 471.5t-433.5 161.5t-432.5 -161.5t-149.5 -471.5zM387 688q0 95 25 177 t74.5 147t131 102t185.5 37q137 0 225 -55v-240h-82l-22 168q-58 20 -113 20q-124 0 -192 -93.5t-68 -252.5q0 -161 77 -256.5t232 -95.5q111 0 205 49l-12 -100q-100 -66 -244 -66q-198 0 -310 123t-112 336z" />
<glyph unicode="&#xaa;" horiz-adv-x="710" d="M51 793q0 106 65 163.5t197 57.5q82 0 162 -25v90q0 125 -166 125q-85 0 -190 -41l8 88q91 60 229 60q252 0 252 -211v-484h-121l-8 60h-4q-63 -38 -114 -57t-111 -19q-85 0 -142 51.5t-57 141.5zM111 346l8 98h493l-8 -98h-493zM180 809q0 -48 31.5 -78.5t89.5 -30.5 q75 0 174 56v153q-66 17 -129 17q-166 0 -166 -117z" />
<glyph unicode="&#xab;" horiz-adv-x="1003" d="M82 516q171 248 324 418h135q-147 -188 -281 -418q143 -243 281 -418h-135q-149 168 -324 418zM463 516q174 253 323 418h136q-147 -188 -281 -418q143 -243 281 -418h-136q-145 163 -323 418z" />
<glyph unicode="&#xac;" d="M86 778v131h934v-514h-133v383h-801z" />
<glyph unicode="&#xad;" horiz-adv-x="552" d="M41 446l8 142h461l-8 -142h-461z" />
<glyph unicode="&#xae;" horiz-adv-x="1538" d="M74 688q0 345 180 533t514 188q336 0 516 -188t180 -533q0 -344 -180 -529.5t-516 -185.5q-334 0 -514 186t-180 529zM186 690q0 -311 149.5 -470t434.5 -159q282 0 432 159t150 470q0 310 -150.5 471.5t-433.5 161.5t-432.5 -161.5t-149.5 -471.5zM465 248v887h276 q351 0 351 -244q0 -83 -50 -140.5t-141 -82.5v-2q47 -30 81.5 -76.5t68.5 -122.5l112 -219h-159l-103 205q-50 100 -86 135t-90 35h-107v-375h-153zM618 723h138q85 0 136.5 42t51.5 118q0 69 -45.5 113t-144.5 44h-136v-317z" />
<glyph unicode="&#xaf;" horiz-adv-x="1077" d="M242 1335v115h594v-115h-594z" />
<glyph unicode="&#xb0;" horiz-adv-x="1077" d="M264 1085q0 111 76.5 186t198.5 75q121 0 196.5 -75t75.5 -186t-75.5 -184.5t-196.5 -73.5q-123 0 -199 73.5t-76 184.5zM387 1085q0 -75 42 -121t110 -46q66 0 106.5 46t40.5 121q0 74 -40.5 121t-106.5 47q-67 0 -109.5 -47t-42.5 -121z" />
<glyph unicode="&#xb1;" d="M86 190v134h934v-134h-934zM86 733v131h399v332h131v-332h404v-131h-402v-299h-133v299h-399z" />
<glyph unicode="&#xb2;" horiz-adv-x="708" d="M51 616v103q84 76 130 118.5t99 96t79 87t50.5 74t33 75.5t8.5 75q0 90 -51.5 134t-135.5 44q-83 0 -188 -45l10 90q103 64 227 64q57 0 106.5 -15t91 -45.5t65.5 -84.5t24 -125q0 -58 -18 -112.5t-43.5 -97t-81.5 -101.5t-100.5 -100t-133.5 -118v-4h441l-15 -113h-598z " />
<glyph unicode="&#xb3;" horiz-adv-x="708" d="M63 750q96 -41 199 -41q111 0 167 41.5t56 119.5q0 72 -53.5 110t-155.5 38h-116v102h100q85 0 139 41.5t54 116.5q0 65 -47.5 105t-129.5 40q-95 0 -186 -39l10 93q91 57 228 57q116 0 195 -59.5t79 -171.5q0 -82 -44 -139.5t-122 -84.5v-2q90 -13 144.5 -68.5 t54.5 -152.5q0 -115 -83.5 -185.5t-246.5 -70.5q-139 0 -227 57z" />
<glyph unicode="&#xb4;" horiz-adv-x="1077" d="M299 1135q168 212 270 381h207q-159 -220 -317 -381h-160z" />
<glyph unicode="&#xb5;" horiz-adv-x="1263" d="M164 -410v1442h180v-635q0 -52 2.5 -81.5t16.5 -68t43 -63.5q61 -55 159 -55q71 0 130.5 22.5t135.5 67.5v813h179v-758q0 -35 4 -60.5t14.5 -50t33 -37.5t56.5 -13q40 0 101 18l-17 -113q-82 -38 -166 -38q-65 0 -110 34t-62 95h-4q-93 -67 -173.5 -101.5t-178.5 -34.5 q-69 0 -125 27.5t-86 73.5l-4 -2l37 -459z" />
<glyph unicode="&#xb6;" horiz-adv-x="1056" d="M63 889q0 221 130 357t370 136h473v-116l-153 -17v-1638l-166 -21v934h-4q-160 -82 -301 -82q-77 0 -137.5 26t-99.5 68.5t-65 101.5t-36.5 121t-10.5 130z" />
<glyph unicode="&#xb7;" horiz-adv-x="552" d="M190 420v194h170v-194h-170z" />
<glyph unicode="&#xb8;" horiz-adv-x="1077" d="M317 -262q72 -37 144 -37q157 0 157 143q0 85 -45 176h113q30 -44 51 -106t21 -117q0 -97 -64 -152t-164 -55q-114 0 -202 60z" />
<glyph unicode="&#xb9;" horiz-adv-x="708" d="M104 1350l5 75q117 49 282 91h78v-811l162 -15v-74h-486v74l183 15v684h-4q-58 -7 -220 -39z" />
<glyph unicode="&#xba;" horiz-adv-x="729" d="M41 942q0 177 85.5 273t242.5 96q154 0 236.5 -86t82.5 -256q0 -177 -85.5 -273t-242.5 -96q-154 0 -236.5 86t-82.5 256zM113 346l8 98h493l-8 -98h-493zM182 944q0 -121 46 -183.5t134 -62.5q87 0 135 71t48 196q0 243 -178 243q-89 0 -137 -69t-48 -195z" />
<glyph unicode="&#xbb;" horiz-adv-x="1003" d="M82 98q137 180 278 418q-116 205 -278 418h133q153 -167 326 -418q-177 -253 -326 -418h-133zM463 98q137 180 278 418q-116 205 -278 418h133q153 -167 326 -418q-177 -253 -326 -418h-133z" />
<glyph unicode="&#xbc;" horiz-adv-x="1826" d="M104 1217l5 75q111 46 282 90h78v-811l162 -14v-74h-486v74l183 14v684h-4q-72 -9 -220 -38zM467 0l829 1382h131l-831 -1382h-129zM1028 199v84l412 616h137v-606h125l-12 -94h-113v-199h-139v199h-410zM1151 293h287v438h-4q-17 -32 -68 -115z" />
<glyph unicode="&#xbd;" horiz-adv-x="1853" d="M104 1217l5 75q111 46 282 90h78v-811l162 -14v-74h-486v74l183 14v684h-4q-72 -9 -220 -38zM461 0l829 1382h131l-831 -1382h-129zM1196 0v102q83 75 130 119t99 96.5t78.5 86.5t50.5 74.5t32.5 75.5t8.5 75q0 90 -51 134t-135 44q-83 0 -188 -45l10 90q102 63 227 63 q57 0 106.5 -15t91 -45.5t65.5 -84.5t24 -125q0 -49 -10 -92t-36 -87.5t-51 -78.5t-77 -85t-90 -85.5t-113 -99.5v-4h440l-14 -113h-598z" />
<glyph unicode="&#xbe;" horiz-adv-x="1826" d="M80 616q96 -41 199 -41q111 0 167 42t56 120q0 72 -53.5 110t-155.5 38h-117v102h100q85 0 139 41.5t54 116.5q0 65 -47 105t-129 40q-96 0 -187 -39l11 92q92 58 227 58q116 0 195 -60t79 -172q0 -82 -43.5 -139t-121.5 -84v-2q90 -13 144 -68.5t54 -152.5 q0 -115 -83 -185.5t-246 -70.5q-140 0 -228 57zM451 0l829 1382h131l-831 -1382h-129zM1014 199v84l411 616h138v-606h125l-13 -94h-112v-199h-140v199h-409zM1137 293h286v438h-4q-21 -42 -67 -115z" />
<glyph unicode="&#xbf;" horiz-adv-x="868" d="M86 -61q0 58 19 112.5t45 95t74 87t85.5 77t99.5 77.5q6 5 10 7.5t9 7t10 7.5l13 206h129l16 -247q-80 -60 -128 -100t-94.5 -91t-67.5 -101.5t-21 -107.5q0 -106 72 -164.5t182 -58.5q124 0 252 61l-15 -124q-138 -86 -307 -86q-56 0 -109 11.5t-103.5 38t-88 65.5 t-60 97.5t-22.5 129.5zM440 827v179h154v-179h-154z" />
<glyph unicode="&#xc0;" horiz-adv-x="1290" d="M41 0l485 1382h244l481 -1382h-207l-135 389h-547l-135 -389h-186zM256 1782h211q106 -145 264 -309h-164q-154 133 -311 309zM406 532h458l-100 289q-84 246 -125 400h-4q-39 -141 -129 -400z" />
<glyph unicode="&#xc1;" horiz-adv-x="1290" d="M41 0l485 1382h244l481 -1382h-207l-135 389h-547l-135 -389h-186zM406 532h458l-100 289q-84 246 -125 400h-4q-39 -141 -129 -400zM567 1473q158 164 264 309h211q-157 -176 -311 -309h-164z" />
<glyph unicode="&#xc2;" horiz-adv-x="1290" d="M41 0l485 1382h244l481 -1382h-207l-135 389h-547l-135 -389h-186zM270 1473q183 179 283 309h184q103 -132 283 -309h-160q-109 101 -215 210q-106 -109 -215 -210h-160zM406 532h458l-100 289q-84 246 -125 400h-4q-39 -141 -129 -400z" />
<glyph unicode="&#xc3;" horiz-adv-x="1290" d="M41 0l485 1382h244l481 -1382h-207l-135 389h-547l-135 -389h-186zM287 1481q9 103 61.5 164t132.5 61q57 0 155 -42t144 -42q29 0 50 10.5t35 31t22 38.5t16 45l98 -27q-9 -102 -61 -162.5t-133 -60.5q-57 0 -155 41t-144 41q-28 0 -49.5 -10.5t-35.5 -30.5t-22 -37.5 t-16 -44.5zM406 532h458l-100 289q-84 246 -125 400h-4q-39 -141 -129 -400z" />
<glyph unicode="&#xc4;" horiz-adv-x="1290" d="M41 0l485 1382h244l481 -1382h-207l-135 389h-547l-135 -389h-186zM373 1538v162h159v-162h-159zM406 532h458l-100 289q-84 246 -125 400h-4q-39 -141 -129 -400zM762 1538v162h160v-162h-160z" />
<glyph unicode="&#xc5;" horiz-adv-x="1290" d="M41 0l485 1382h244l481 -1382h-207l-135 389h-547l-135 -389h-186zM406 532h458l-100 289q-84 246 -125 400h-4q-39 -141 -129 -400zM414 1657q0 93 62.5 147t176.5 54q113 0 174.5 -50t61.5 -139q0 -93 -63 -147t-177 -54q-113 0 -174 49.5t-61 139.5zM532 1659 q0 -57 32 -86t87 -29q54 0 86.5 31.5t32.5 91.5q0 56 -32 84.5t-87 28.5t-87 -30.5t-32 -90.5z" />
<glyph unicode="&#xc6;" horiz-adv-x="1822" d="M33 0l647 1382h1016l14 -143h-713l99 -508h567v-141h-539l88 -447h545l-14 -143h-699l-108 543h-459l-254 -543h-190zM535 686h372l-110 559h-11q-46 -125 -165 -383z" />
<glyph unicode="&#xc7;" horiz-adv-x="1185" d="M74 688q0 146 38.5 273.5t114.5 228.5t201 160t285 59q199 0 342 -84v-362h-117l-31 268q-79 33 -178 33q-211 0 -326.5 -151t-115.5 -413q0 -126 29.5 -228.5t89 -180t157 -120t225.5 -42.5q178 0 326 80l-18 -133q-140 -95 -344 -101q47 -96 47 -178q0 -97 -64 -152 t-164 -55q-117 0 -202 60l-11 88q72 -37 144 -37q157 0 157 143q0 63 -28 136q-267 24 -412 214.5t-145 493.5z" />
<glyph unicode="&#xc8;" horiz-adv-x="1142" d="M197 0v1382h802l15 -143h-621v-448h574v-144h-574v-504h668l-14 -143h-850zM221 1782h211q106 -145 264 -309h-164q-154 133 -311 309z" />
<glyph unicode="&#xc9;" horiz-adv-x="1142" d="M197 0v1382h802l15 -143h-621v-448h574v-144h-574v-504h668l-14 -143h-850zM487 1473q162 169 265 309h211q-154 -172 -312 -309h-164z" />
<glyph unicode="&#xca;" horiz-adv-x="1142" d="M197 0v1382h802l15 -143h-621v-448h574v-144h-574v-504h668l-14 -143h-850zM205 1473q179 175 282 309h185q106 -136 282 -309h-159q-109 101 -215 210q-106 -109 -215 -210h-160z" />
<glyph unicode="&#xcb;" horiz-adv-x="1142" d="M197 0v1382h802l15 -143h-621v-448h574v-144h-574v-504h668l-14 -143h-850zM324 1538v162h159v-162h-159zM713 1538v162h159v-162h-159z" />
<glyph unicode="&#xcc;" horiz-adv-x="589" d="M-100 1782h211q106 -145 264 -309h-164q-154 133 -311 309zM197 0v1382h196v-1382h-196z" />
<glyph unicode="&#xcd;" horiz-adv-x="589" d="M197 0v1382h196v-1382h-196zM213 1473q158 164 264 309h211q-157 -176 -311 -309h-164z" />
<glyph unicode="&#xce;" horiz-adv-x="589" d="M-80 1473q183 179 283 309h184q103 -132 283 -309h-160q-109 101 -215 210q-106 -109 -215 -210h-160zM197 0v1382h196v-1382h-196z" />
<glyph unicode="&#xcf;" horiz-adv-x="589" d="M20 1538v162h160v-162h-160zM197 0v1382h196v-1382h-196zM410 1538v162h159v-162h-159z" />
<glyph unicode="&#xd0;" horiz-adv-x="1417" d="M0 653v131h197v598h467q677 0 677 -680q0 -152 -40.5 -277.5t-121.5 -221.5t-212.5 -149.5t-302.5 -53.5h-467v653h-197zM393 137h244q246 0 369.5 147.5t123.5 415.5q0 271 -119 408t-374 137h-244v-461h346v-131h-346v-516z" />
<glyph unicode="&#xd1;" horiz-adv-x="1449" d="M197 0v1382h206l523 -835q121 -201 149 -254h4v1089h174v-1382h-204l-547 870q-55 88 -129 211h-2v-1081h-174zM373 1481q9 103 61.5 164t132.5 61q57 0 155 -42t144 -42q29 0 50 10.5t35 31t22 38.5t16 45l98 -27q-9 -102 -61 -162.5t-133 -60.5q-57 0 -155 41t-144 41 q-28 0 -49.5 -10.5t-35.5 -30.5t-22 -37.5t-16 -44.5z" />
<glyph unicode="&#xd2;" horiz-adv-x="1378" d="M74 670q0 347 163 543t461 196q295 0 451 -175.5t156 -512.5q0 -348 -163.5 -548t-461.5 -200q-293 0 -449.5 180t-156.5 517zM287 674q0 -557 395 -557q201 0 305.5 158t104.5 444q0 545 -396 545q-202 0 -305.5 -153.5t-103.5 -436.5zM317 1782h211q103 -140 265 -309 h-164q-158 137 -312 309z" />
<glyph unicode="&#xd3;" horiz-adv-x="1378" d="M74 670q0 347 163 543t461 196q295 0 451 -175.5t156 -512.5q0 -348 -163.5 -548t-461.5 -200q-293 0 -449.5 180t-156.5 517zM287 674q0 -557 395 -557q201 0 305.5 158t104.5 444q0 545 -396 545q-202 0 -305.5 -153.5t-103.5 -436.5zM610 1473q158 164 264 309h211 q-157 -176 -311 -309h-164z" />
<glyph unicode="&#xd4;" horiz-adv-x="1378" d="M74 670q0 347 163 543t461 196q295 0 451 -175.5t156 -512.5q0 -348 -163.5 -548t-461.5 -200q-293 0 -449.5 180t-156.5 517zM287 674q0 -557 395 -557q201 0 305.5 158t104.5 444q0 545 -396 545q-202 0 -305.5 -153.5t-103.5 -436.5zM315 1473q183 179 283 309h184 q103 -132 283 -309h-160q-109 101 -215 210q-106 -109 -215 -210h-160z" />
<glyph unicode="&#xd5;" horiz-adv-x="1378" d="M74 670q0 347 163 543t461 196q295 0 451 -175.5t156 -512.5q0 -348 -163.5 -548t-461.5 -200q-293 0 -449.5 180t-156.5 517zM287 674q0 -557 395 -557q201 0 305.5 158t104.5 444q0 545 -396 545q-202 0 -305.5 -153.5t-103.5 -436.5zM348 1481q9 103 62 164t133 61 q57 0 155 -42t144 -42q29 0 50 10.5t35 31t22 38.5t16 45l98 -27q-9 -102 -61.5 -162.5t-133.5 -60.5q-57 0 -155 41t-144 41q-28 0 -49.5 -10.5t-35.5 -30.5t-22 -37.5t-16 -44.5z" />
<glyph unicode="&#xd6;" horiz-adv-x="1378" d="M74 670q0 347 163 543t461 196q295 0 451 -175.5t156 -512.5q0 -348 -163.5 -548t-461.5 -200q-293 0 -449.5 180t-156.5 517zM287 674q0 -557 395 -557q201 0 305.5 158t104.5 444q0 545 -396 545q-202 0 -305.5 -153.5t-103.5 -436.5zM416 1538v162h159v-162h-159z M805 1538v162h160v-162h-160z" />
<glyph unicode="&#xd7;" d="M147 922l97 94l307 -309l311 311l92 -94l-309 -312l311 -309l-94 -94l-311 309l-307 -305l-94 92l309 307z" />
<glyph unicode="&#xd8;" horiz-adv-x="1378" d="M74 670q0 347 163 543t461 196q228 0 369 -117l86 117h152l-144 -192q144 -176 144 -496q0 -348 -163.5 -548t-461.5 -200q-226 0 -367 117l-86 -117h-151l143 193q-145 177 -145 504zM285 674q0 -218 73 -334l611 823q-98 107 -273 107q-203 0 -307 -154.5t-104 -441.5z M412 217q94 -104 270 -104q203 0 307.5 158.5t104.5 447.5q0 213 -74 323z" />
<glyph unicode="&#xd9;" horiz-adv-x="1413" d="M178 426v956h197v-915q0 -82 14 -140.5t50 -108.5t105.5 -75.5t172.5 -25.5q344 0 344 348v917h174v-956q0 -99 -30 -179.5t-92 -142.5t-165 -96.5t-241 -34.5q-123 0 -217.5 24.5t-152.5 65.5t-94.5 100.5t-50.5 123t-14 139.5zM342 1782h211q106 -145 264 -309h-164 q-154 133 -311 309z" />
<glyph unicode="&#xda;" horiz-adv-x="1413" d="M178 426v956h197v-915q0 -82 14 -140.5t50 -108.5t105.5 -75.5t172.5 -25.5q344 0 344 348v917h174v-956q0 -99 -30 -179.5t-92 -142.5t-165 -96.5t-241 -34.5q-123 0 -217.5 24.5t-152.5 65.5t-94.5 100.5t-50.5 123t-14 139.5zM614 1473q162 169 265 309h211 q-154 -172 -312 -309h-164z" />
<glyph unicode="&#xdb;" horiz-adv-x="1413" d="M178 426v956h197v-915q0 -82 14 -140.5t50 -108.5t105.5 -75.5t172.5 -25.5q344 0 344 348v917h174v-956q0 -99 -30 -179.5t-92 -142.5t-165 -96.5t-241 -34.5q-123 0 -217.5 24.5t-152.5 65.5t-94.5 100.5t-50.5 123t-14 139.5zM336 1473q179 175 282 309h185 q106 -136 282 -309h-159q-109 101 -215 210q-106 -109 -215 -210h-160z" />
<glyph unicode="&#xdc;" horiz-adv-x="1413" d="M178 426v956h197v-915q0 -82 14 -140.5t50 -108.5t105.5 -75.5t172.5 -25.5q344 0 344 348v917h174v-956q0 -99 -30 -179.5t-92 -142.5t-165 -96.5t-241 -34.5q-123 0 -217.5 24.5t-152.5 65.5t-94.5 100.5t-50.5 123t-14 139.5zM442 1538v162h160v-162h-160zM831 1538 v162h160v-162h-160z" />
<glyph unicode="&#xdd;" horiz-adv-x="1239" d="M63 1382h224l340 -675h2l344 675h203l-457 -860v-522h-199v522zM545 1473q158 164 264 309h211q-157 -176 -311 -309h-164z" />
<glyph unicode="&#xde;" horiz-adv-x="1189" d="M197 0v1382h196v-153h240q104 0 190 -24.5t152.5 -74.5t103.5 -132.5t37 -190.5q0 -203 -132.5 -313.5t-354.5 -110.5h-236v-383h-196zM393 514h180q155 0 244.5 75.5t89.5 217.5q0 149 -90.5 220t-236.5 71h-187v-584z" />
<glyph unicode="&#xdf;" horiz-adv-x="1269" d="M68 899v117l122 16v148q0 164 129 250t357 86q96 0 175 -16.5t142 -50t98 -92t35 -136.5q0 -62 -24 -108.5t-62 -74t-84 -49t-92 -39.5t-84 -38.5t-62 -53.5t-24 -78q0 -44 27.5 -77.5t71.5 -55t97.5 -42t107 -46.5t97.5 -60.5t71.5 -92t27.5 -132.5q0 -147 -101 -224 t-272 -77q-169 0 -293 62l-8 112q121 -41 266 -41q224 0 224 160q0 47 -27.5 82t-71.5 58t-97 43.5t-106 45.5t-97 57t-71.5 85t-27.5 123q0 63 23.5 111t60.5 75.5t82 49t90 39.5t82 38.5t60.5 54t23.5 78.5q0 89 -69.5 133.5t-192.5 44.5q-303 0 -303 -247v-1137h-179v899 h-122z" />
<glyph unicode="&#xe0;" horiz-adv-x="1075" d="M84 268q0 159 99.5 245.5t303.5 86.5q119 0 248 -37v154q0 102 -63.5 151.5t-194.5 49.5t-291 -62l15 117q61 38 151 62t189 24q176 0 275 -76t99 -242v-741h-161l-13 90h-4q-106 -60 -182.5 -88.5t-165.5 -28.5q-131 0 -218 79t-87 216zM184 1516h207q99 -163 271 -381 h-160q-171 178 -318 381zM258 289q0 -78 52 -128t147 -50q70 0 134 22.5t144 67.5v252q-98 28 -207 28q-270 0 -270 -192z" />
<glyph unicode="&#xe1;" horiz-adv-x="1075" d="M84 268q0 159 99.5 245.5t303.5 86.5q119 0 248 -37v154q0 102 -63.5 151.5t-194.5 49.5t-291 -62l15 117q61 38 151 62t189 24q176 0 275 -76t99 -242v-741h-161l-13 90h-4q-106 -60 -182.5 -88.5t-165.5 -28.5q-131 0 -218 79t-87 216zM258 289q0 -78 52 -128t147 -50 q70 0 134 22.5t144 67.5v252q-98 28 -207 28q-270 0 -270 -192zM463 1135q168 212 270 381h207q-159 -220 -317 -381h-160z" />
<glyph unicode="&#xe2;" horiz-adv-x="1075" d="M84 268q0 159 99.5 245.5t303.5 86.5q119 0 248 -37v154q0 102 -63.5 151.5t-194.5 49.5t-291 -62l15 117q61 38 151 62t189 24q176 0 275 -76t99 -242v-741h-161l-13 90h-4q-106 -60 -182.5 -88.5t-165.5 -28.5q-131 0 -218 79t-87 216zM166 1135q162 197 280 381h189 q118 -184 280 -381h-157q-105 120 -217 280q-116 -158 -217 -280h-158zM258 289q0 -78 52 -128t147 -50q70 0 134 22.5t144 67.5v252q-98 28 -207 28q-270 0 -270 -192z" />
<glyph unicode="&#xe3;" horiz-adv-x="1075" d="M84 268q0 159 99.5 245.5t303.5 86.5q119 0 248 -37v154q0 102 -63.5 151.5t-194.5 49.5t-291 -62l15 117q61 38 151 62t189 24q176 0 275 -76t99 -242v-741h-161l-13 90h-4q-106 -60 -182.5 -88.5t-165.5 -28.5q-131 0 -218 79t-87 216zM188 1262q9 101 62 162t133 61 q57 0 155 -41t144 -41q28 0 49.5 10.5t35.5 30.5t22 37.5t16 44.5l98 -25q-9 -103 -61 -164t-133 -61q-57 0 -155 42t-144 42q-29 0 -50 -10.5t-35 -31t-22 -38.5t-16 -45zM258 289q0 -78 52 -128t147 -50q70 0 134 22.5t144 67.5v252q-98 28 -207 28q-270 0 -270 -192z" />
<glyph unicode="&#xe4;" horiz-adv-x="1075" d="M84 268q0 159 99.5 245.5t303.5 86.5q119 0 248 -37v154q0 102 -63.5 151.5t-194.5 49.5t-291 -62l15 117q61 38 151 62t189 24q176 0 275 -76t99 -242v-741h-161l-13 90h-4q-106 -60 -182.5 -88.5t-165.5 -28.5q-131 0 -218 79t-87 216zM258 289q0 -78 52 -128t147 -50 q70 0 134 22.5t144 67.5v252q-98 28 -207 28q-270 0 -270 -192zM274 1354v162h160v-162h-160zM664 1354v162h159v-162h-159z" />
<glyph unicode="&#xe5;" horiz-adv-x="1075" d="M84 268q0 159 99.5 245.5t303.5 86.5q119 0 248 -37v154q0 102 -63.5 151.5t-194.5 49.5t-291 -62l15 117q61 38 151 62t189 24q176 0 275 -76t99 -242v-741h-161l-13 90h-4q-106 -60 -182.5 -88.5t-165.5 -28.5q-131 0 -218 79t-87 216zM258 289q0 -78 52 -128t147 -50 q70 0 134 22.5t144 67.5v252q-98 28 -207 28q-270 0 -270 -192zM301 1339q0 92 63 146.5t177 54.5q113 0 174 -50t61 -140q0 -92 -62.5 -146.5t-176.5 -54.5q-113 0 -174.5 50t-61.5 140zM420 1341q0 -57 32 -85.5t87 -28.5q54 0 86 30.5t32 90.5q0 57 -31.5 85.5 t-86.5 28.5t-87 -30.5t-32 -90.5z" />
<glyph unicode="&#xe6;" horiz-adv-x="1658" d="M80 268q0 159 99.5 245.5t303.5 86.5q119 0 248 -37v154q0 201 -258 201q-131 0 -291 -62l15 117q137 86 340 86q253 0 317 -174h4q108 174 313 174q91 0 165.5 -25t132.5 -76.5t90 -136.5t32 -198q0 -71 -10 -117h-672q-1 -60 7.5 -113t33 -105.5t63.5 -89.5t103 -60 t146 -23q146 0 294 61l-14 -117q-60 -40 -149.5 -63t-182.5 -23q-262 0 -376 168h-5q-111 -85 -213 -126.5t-225 -41.5q-138 0 -224.5 79.5t-86.5 215.5zM254 289q0 -78 51.5 -128t145.5 -50q166 0 331 120q-44 90 -47 220q-110 30 -211 30q-270 0 -270 -192zM911 627h502 q9 153 -55 233t-180 80q-128 0 -192.5 -85t-74.5 -228z" />
<glyph unicode="&#xe7;" horiz-adv-x="899" d="M80 514q0 92 16 172t52.5 149t90 118.5t133 77.5t177.5 28q151 0 270 -72v-280h-104l-23 190q-63 25 -127 25q-82 0 -141 -33t-91 -91.5t-46.5 -127.5t-14.5 -152q0 -188 82.5 -293.5t245.5 -105.5q121 0 250 59l-14 -119q-108 -76 -267 -82q45 -92 45 -176 q0 -97 -63.5 -152t-163.5 -55q-115 0 -203 60l-10 88q72 -37 143 -37q75 0 116.5 35.5t41.5 107.5q0 64 -26 132q-123 17 -207 91t-123 186t-39 257z" />
<glyph unicode="&#xe8;" horiz-adv-x="1005" d="M63 520q0 246 118.5 392.5t338.5 146.5q91 0 165.5 -25t132 -76.5t89 -136.5t31.5 -198q0 -68 -8 -117h-674q-1 -59 7.5 -112t33 -105t63 -89t102.5 -60t146 -23q150 0 295 61l-14 -119q-58 -39 -148.5 -62.5t-183.5 -23.5q-235 0 -364.5 138t-129.5 409zM137 1516h207 q102 -169 270 -381h-159q-171 178 -318 381zM258 627h500q7 154 -55 233.5t-179 79.5q-126 0 -191 -85.5t-75 -227.5z" />
<glyph unicode="&#xe9;" horiz-adv-x="1005" d="M63 520q0 246 118.5 392.5t338.5 146.5q91 0 165.5 -25t132 -76.5t89 -136.5t31.5 -198q0 -68 -8 -117h-674q-1 -59 7.5 -112t33 -105t63 -89t102.5 -60t146 -23q150 0 295 61l-14 -119q-58 -39 -148.5 -62.5t-183.5 -23.5q-235 0 -364.5 138t-129.5 409zM258 627h500 q7 154 -55 233.5t-179 79.5q-126 0 -191 -85.5t-75 -227.5zM414 1135q168 212 270 381h207q-156 -216 -318 -381h-159z" />
<glyph unicode="&#xea;" horiz-adv-x="1005" d="M63 520q0 246 118.5 392.5t338.5 146.5q91 0 165.5 -25t132 -76.5t89 -136.5t31.5 -198q0 -68 -8 -117h-674q-1 -59 7.5 -112t33 -105t63 -89t102.5 -60t146 -23q150 0 295 61l-14 -119q-58 -39 -148.5 -62.5t-183.5 -23.5q-235 0 -364.5 138t-129.5 409zM143 1135 q166 202 281 381h188q115 -179 281 -381h-158q-105 120 -217 280q-116 -158 -217 -280h-158zM258 627h500q7 154 -55 233.5t-179 79.5q-126 0 -191 -85.5t-75 -227.5z" />
<glyph unicode="&#xeb;" horiz-adv-x="1005" d="M63 520q0 246 118.5 392.5t338.5 146.5q91 0 165.5 -25t132 -76.5t89 -136.5t31.5 -198q0 -68 -8 -117h-674q-1 -59 7.5 -112t33 -105t63 -89t102.5 -60t146 -23q150 0 295 61l-14 -119q-58 -39 -148.5 -62.5t-183.5 -23.5q-235 0 -364.5 138t-129.5 409zM244 1354v162 h159v-162h-159zM258 627h500q7 154 -55 233.5t-179 79.5q-126 0 -191 -85.5t-75 -227.5zM633 1354v162h160v-162h-160z" />
<glyph unicode="&#xec;" horiz-adv-x="534" d="M-133 1516h207q102 -169 270 -381h-160q-167 174 -317 381zM178 0v1032h178v-1032h-178z" />
<glyph unicode="&#xed;" horiz-adv-x="534" d="M178 0v1032h178v-1032h-178zM188 1135q172 218 271 381h207q-156 -216 -318 -381h-160z" />
<glyph unicode="&#xee;" horiz-adv-x="534" d="M-106 1135q162 197 280 381h188q115 -179 281 -381h-158q-105 120 -217 280q-116 -158 -217 -280h-157zM178 0v1032h178v-1032h-178z" />
<glyph unicode="&#xef;" horiz-adv-x="534" d="M-6 1354v162h160v-162h-160zM178 0v1032h178v-1032h-178zM383 1354v162h160v-162h-160z" />
<glyph unicode="&#xf0;" horiz-adv-x="1093" d="M63 498q0 85 17 162.5t54.5 147.5t92 121t134 81t176.5 30q113 0 217 -51h6q-51 129 -154 240l-241 -88l-29 114l178 76q-95 87 -227 170l176 15q112 -65 205 -146l237 82l29 -115l-162 -67q258 -279 258 -723q0 -276 -135 -425t-356 -149q-228 0 -352 133t-124 392z M256 494q0 -187 74 -288.5t211 -101.5q141 0 219 112.5t78 322.5q0 179 -41 319q-95 53 -219 53q-109 0 -183.5 -58t-106.5 -149.5t-32 -209.5z" />
<glyph unicode="&#xf1;" horiz-adv-x="1204" d="M184 0v1032h160l10 -94h4q98 58 180 89.5t177 31.5q137 0 227 -72q67 -52 88 -123t21 -192v-672h-181v635q0 55 -2 82.5t-17 66.5t-46 64q-61 55 -166 55q-74 0 -135 -22t-142 -68v-813h-178zM258 1262q9 101 62 162t133 61q57 0 155 -41t144 -41q28 0 49.5 10t35.5 31 t21 38t16 44l99 -25q-9 -103 -61.5 -164t-133.5 -61q-57 0 -155 42t-144 42q-29 0 -50 -10.5t-35 -31t-22 -38.5t-16 -45z" />
<glyph unicode="&#xf2;" horiz-adv-x="1093" d="M63 496q0 271 129.5 417t360.5 146q229 0 353 -130.5t124 -389.5q0 -270 -128.5 -418t-358.5 -148t-355 131.5t-125 391.5zM170 1516h207q102 -169 270 -381h-160q-167 174 -317 381zM256 502q0 -193 73.5 -294.5t213.5 -101.5q141 0 219 113t78 313q0 193 -74.5 293.5 t-214.5 100.5t-217.5 -112t-77.5 -312z" />
<glyph unicode="&#xf3;" horiz-adv-x="1093" d="M63 496q0 271 129.5 417t360.5 146q229 0 353 -130.5t124 -389.5q0 -270 -128.5 -418t-358.5 -148t-355 131.5t-125 391.5zM256 502q0 -193 73.5 -294.5t213.5 -101.5q141 0 219 113t78 313q0 193 -74.5 293.5t-214.5 100.5t-217.5 -112t-77.5 -312zM459 1137 q168 212 270 381h207q-156 -216 -318 -381h-159z" />
<glyph unicode="&#xf4;" horiz-adv-x="1093" d="M63 496q0 271 129.5 417t360.5 146q229 0 353 -130.5t124 -389.5q0 -270 -128.5 -418t-358.5 -148t-355 131.5t-125 391.5zM178 1135q166 202 281 381h188q115 -179 281 -381h-158q-105 120 -217 280q-116 -158 -217 -280h-158zM256 502q0 -193 73.5 -294.5t213.5 -101.5 q141 0 219 113t78 313q0 193 -74.5 293.5t-214.5 100.5t-217.5 -112t-77.5 -312z" />
<glyph unicode="&#xf5;" horiz-adv-x="1093" d="M63 496q0 271 129.5 417t360.5 146q229 0 353 -130.5t124 -389.5q0 -270 -128.5 -418t-358.5 -148t-355 131.5t-125 391.5zM207 1262q9 101 62 162t132 61q57 0 155 -41t144 -41q28 0 49.5 10.5t35.5 30.5t22 37.5t16 44.5l99 -25q-9 -103 -61.5 -164t-133.5 -61 q-57 0 -155 42t-144 42q-29 0 -50 -10.5t-35 -31t-22 -38.5t-16 -45zM256 502q0 -193 73.5 -294.5t213.5 -101.5q141 0 219 113t78 313q0 193 -74.5 293.5t-214.5 100.5t-217.5 -112t-77.5 -312z" />
<glyph unicode="&#xf6;" horiz-adv-x="1093" d="M63 496q0 271 129.5 417t360.5 146q229 0 353 -130.5t124 -389.5q0 -270 -128.5 -418t-358.5 -148t-355 131.5t-125 391.5zM256 502q0 -193 73.5 -294.5t213.5 -101.5q141 0 219 113t78 313q0 193 -74.5 293.5t-214.5 100.5t-217.5 -112t-77.5 -312zM289 1354v162h160 v-162h-160zM678 1354v162h160v-162h-160z" />
<glyph unicode="&#xf7;" d="M86 549v131h934v-131h-934zM467 115v190h170v-190h-21h-149zM467 926v188h170v-188h-170z" />
<glyph unicode="&#xf8;" horiz-adv-x="1093" d="M63 496q0 272 129 417.5t361 145.5q167 0 274 -82l62 82h143l-110 -148q108 -130 108 -372q0 -271 -128 -418.5t-359 -147.5q-165 0 -275 78l-57 -78h-143l108 146q-113 128 -113 377zM257.5 473q8.5 -117 49.5 -201l428 584q-68 74 -184 74q-102 0 -168 -60 q-69 -56 -101.5 -168t-24 -229zM360 172q67 -70 183 -70q99 0 170 58q71 57 103 170.5t22.5 229t-50.5 196.5z" />
<glyph unicode="&#xf9;" horiz-adv-x="1183" d="M160 360v672h178v-635q0 -51 2.5 -81t17 -68.5t43.5 -63.5q61 -55 160 -55q71 0 130.5 22.5t133.5 67.5v813h181v-1032h-160l-10 94h-5q-98 -59 -176 -90t-170 -31q-132 0 -221 72q-65 51 -84.5 121.5t-19.5 193.5zM195 1516h206q99 -163 271 -381h-160 q-167 174 -317 381z" />
<glyph unicode="&#xfa;" horiz-adv-x="1183" d="M160 360v672h178v-635q0 -51 2.5 -81t17 -68.5t43.5 -63.5q61 -55 160 -55q71 0 130.5 22.5t133.5 67.5v813h181v-1032h-160l-10 94h-5q-98 -59 -176 -90t-170 -31q-132 0 -221 72q-65 51 -84.5 121.5t-19.5 193.5zM498 1135q168 212 270 381h207q-156 -216 -318 -381 h-159z" />
<glyph unicode="&#xfb;" horiz-adv-x="1183" d="M160 360v672h178v-635q0 -51 2.5 -81t17 -68.5t43.5 -63.5q61 -55 160 -55q71 0 130.5 22.5t133.5 67.5v813h181v-1032h-160l-10 94h-5q-98 -59 -176 -90t-170 -31q-132 0 -221 72q-65 51 -84.5 121.5t-19.5 193.5zM215 1135q166 202 281 381h188q115 -179 281 -381h-158 q-105 120 -217 280q-116 -158 -217 -280h-158z" />
<glyph unicode="&#xfc;" horiz-adv-x="1183" d="M160 360v672h178v-635q0 -51 2.5 -81t17 -68.5t43.5 -63.5q61 -55 160 -55q71 0 130.5 22.5t133.5 67.5v813h181v-1032h-160l-10 94h-5q-98 -59 -176 -90t-170 -31q-132 0 -221 72q-65 51 -84.5 121.5t-19.5 193.5zM315 1354v162h160v-162h-160zM705 1354v162h159v-162 h-159z" />
<glyph unicode="&#xfd;" horiz-adv-x="976" d="M20 1032h195l234 -551q54 -135 98 -291h2q41 170 78 302l157 540h168l-325 -1085q-27 -89 -58.5 -151.5t-76.5 -110.5t-106.5 -71.5t-141.5 -23.5q-64 0 -138 27l-16 123q61 -14 123 -14q95 0 147 51t86 162l19 61zM416 1135q168 212 270 381h207q-156 -216 -318 -381 h-159z" />
<glyph unicode="&#xfe;" horiz-adv-x="1153" d="M178 -410v1903l178 23v-572h4q97 57 170 86t156 29q183 0 292 -137.5t109 -384.5q0 -265 -126.5 -414.5t-354.5 -149.5q-138 0 -250 64v-424zM356 162q96 -49 203 -49q157 0 247.5 102t90.5 309q0 185 -78.5 282t-202.5 97q-66 0 -123.5 -22t-136.5 -68v-651z" />
<glyph unicode="&#xff;" horiz-adv-x="976" d="M20 1032h195l234 -551q54 -135 98 -291h2q41 170 78 302l157 540h168l-325 -1085q-27 -89 -58.5 -151.5t-76.5 -110.5t-106.5 -71.5t-141.5 -23.5q-64 0 -138 27l-16 123q61 -14 123 -14q95 0 147 51t86 162l19 61zM219 1354v162h160v-162h-160zM608 1354v162h160v-162 h-160z" />
<glyph unicode="&#x152;" horiz-adv-x="1947" d="M74 670q0 130 23.5 240t75.5 203t129.5 158t190 101.5t252.5 36.5q153 0 312 -27h747l15 -143h-621v-448h574v-144h-574v-504h668l-15 -143h-796q-201 -27 -334 -27q-329 0 -488 181.5t-159 515.5zM287 674q0 -555 440 -555q114 0 274 26v1094q-132 25 -251 25 q-244 0 -353.5 -153.5t-109.5 -436.5z" />
<glyph unicode="&#x153;" horiz-adv-x="1775" d="M63 496q0 269 129.5 416t360.5 147q283 0 381 -223h4q104 223 350 223q91 0 165.5 -25t132.5 -76.5t90 -136.5t32 -198q0 -71 -10 -117h-672q-1 -60 7.5 -113t33 -105.5t63 -89.5t102.5 -60t146 -23q147 0 295 61l-14 -117q-60 -40 -149.5 -63t-182.5 -23 q-298 0 -397 238h-4q-54 -117 -152 -177.5t-231 -60.5q-230 0 -355 131.5t-125 391.5zM256 502q0 -193 73.5 -294.5t213.5 -101.5q141 0 219 113t78 313q0 193 -74.5 293.5t-214.5 100.5t-217.5 -112t-77.5 -312zM1028 627h502q9 152 -55.5 232.5t-180.5 80.5 q-128 0 -192 -85t-74 -228z" />
<glyph unicode="&#x178;" horiz-adv-x="1239" d="M63 1382h224l340 -675h2l344 675h203l-457 -860v-522h-199v522zM352 1538v162h160v-162h-160zM741 1538v162h160v-162h-160z" />
<glyph unicode="&#x2c6;" horiz-adv-x="1077" d="M164 1135q162 197 280 381h189q118 -184 280 -381h-157q-105 120 -217 280q-116 -158 -217 -280h-158z" />
<glyph unicode="&#x2dc;" horiz-adv-x="1077" d="M180 1262q9 101 62 162t133 61q57 0 155 -41t144 -41q28 0 49.5 10.5t35.5 30.5t22 37.5t16 44.5l98 -25q-9 -103 -61.5 -164t-133.5 -61q-57 0 -155 42t-144 42q-29 0 -50 -10.5t-35 -31t-21.5 -38t-15.5 -45.5z" />
<glyph unicode="&#x2000;" horiz-adv-x="929" />
<glyph unicode="&#x2001;" horiz-adv-x="1858" />
<glyph unicode="&#x2002;" horiz-adv-x="929" />
<glyph unicode="&#x2003;" horiz-adv-x="1858" />
<glyph unicode="&#x2004;" horiz-adv-x="619" />
<glyph unicode="&#x2005;" horiz-adv-x="464" />
<glyph unicode="&#x2006;" horiz-adv-x="309" />
<glyph unicode="&#x2007;" horiz-adv-x="309" />
<glyph unicode="&#x2008;" horiz-adv-x="232" />
<glyph unicode="&#x2009;" horiz-adv-x="371" />
<glyph unicode="&#x200a;" horiz-adv-x="103" />
<glyph unicode="&#x2010;" horiz-adv-x="552" d="M41 446l8 142h461l-8 -142h-461z" />
<glyph unicode="&#x2011;" horiz-adv-x="552" d="M41 446l8 142h461l-8 -142h-461z" />
<glyph unicode="&#x2012;" horiz-adv-x="552" d="M41 446l8 142h461l-8 -142h-461z" />
<glyph unicode="&#x2013;" d="M31 457l8 121h1036l-8 -121h-1036z" />
<glyph unicode="&#x2014;" horiz-adv-x="2211" d="M31 457l8 121h2142l-8 -121h-2142z" />
<glyph unicode="&#x2018;" horiz-adv-x="552" d="M141 1145q0 195 195 371h145q-85 -77 -133 -157.5t-53 -150.5l33 -172h-181q-6 99 -6 109z" />
<glyph unicode="&#x2019;" horiz-adv-x="552" d="M70 1036q85 75 133 156t53 151l-33 173h180q0 -3 3.5 -47t3.5 -62q0 -198 -195 -371h-145z" />
<glyph unicode="&#x201a;" horiz-adv-x="552" d="M70 -285q85 75 133 156.5t53 151.5l-33 172h180q0 -3 3.5 -47t3.5 -62q0 -198 -195 -371h-145z" />
<glyph unicode="&#x201c;" horiz-adv-x="899" d="M135 1145q0 195 195 371h145q-85 -77 -133 -157.5t-53 -150.5l33 -172h-181q-6 99 -6 109zM496 1145q0 196 194 371h146q-85 -77 -133.5 -157.5t-53.5 -150.5l33 -172h-180q-6 99 -6 109z" />
<glyph unicode="&#x201d;" horiz-adv-x="899" d="M63 1036q85 76 133.5 156.5t53.5 150.5l-33 173h180q6 -99 6 -109q0 -199 -194 -371h-146zM424 1036q85 75 133 156t53 151l-32 173h180q6 -99 6 -109q0 -198 -195 -371h-145z" />
<glyph unicode="&#x201e;" horiz-adv-x="899" d="M63 -285q85 75 133.5 156.5t53.5 151.5l-33 172h180q6 -99 6 -109q0 -199 -194 -371h-146zM424 -285q85 75 133 156.5t53 151.5l-32 172h180q6 -99 6 -109q0 -198 -195 -371h-145z" />
<glyph unicode="&#x2022;" horiz-adv-x="815" d="M184 238v559h449v-559h-449z" />
<glyph unicode="&#x2026;" horiz-adv-x="2211" d="M227 0v195h172v-195h-172zM1020 0v195h172v-195h-172zM1812 0v195h170v-195h-170z" />
<glyph unicode="&#x202f;" horiz-adv-x="371" />
<glyph unicode="&#x2039;" horiz-adv-x="622" d="M82 516q171 248 324 418h135q-147 -188 -281 -418q143 -243 281 -418h-135q-149 168 -324 418z" />
<glyph unicode="&#x203a;" horiz-adv-x="622" d="M82 98q137 180 278 418q-116 205 -278 418h133q153 -167 326 -418q-177 -253 -326 -418h-133z" />
<glyph unicode="&#x205f;" horiz-adv-x="464" />
<glyph unicode="&#x20ac;" d="M57 399v113h154q-4 58 -4 96q0 50 6 99h-156v112h176q17 71 44.5 133.5t69.5 119t95 96.5t124.5 63.5t154.5 23.5q182 0 295 -88l16 -112q-117 69 -264 69q-137 0 -220 -83.5t-116 -221.5h512v-112h-543q-4 -33 -4 -99q0 -67 4 -96h543v-113h-508q34 -136 121.5 -215.5 t228.5 -79.5q147 0 265 70l-17 -113q-52 -41 -132.5 -64.5t-172.5 -23.5q-196 0 -325.5 113t-174.5 313h-172z" />
<glyph unicode="&#x2122;" horiz-adv-x="1896" d="M20 1276l9 106h733l8 -106h-299v-780h-152v780h-299zM889 496l31 886h178l176 -415q32 -79 55 -162h4q17 66 56 162l172 415h182l33 -886h-150l-20 497v162h-7q-39 -119 -53 -156l-155 -366h-138l-159 366q-21 54 -54 156h-6q0 -109 -2 -162l-14 -497h-129z" />
</font>
</defs>
</svg>
