<?xml version="1.0" standalone="no"?>
<!DOCTYPE svg PUBLIC "-//W3C//DTD SVG 1.1//EN" "http://www.w3.org/Graphics/SVG/1.1/DTD/svg11.dtd" >
<svg xmlns="http://www.w3.org/2000/svg">
<metadata></metadata>
<defs>
<font id="ardoise_ptfbold" horiz-adv-x="1105" >
<font-face units-per-em="2048" ascent="1638" descent="-410" />
<missing-glyph horiz-adv-x="552" />
<glyph unicode="&#xfb01;" horiz-adv-x="1271" d="M57 834v208l121 19v119q0 169 130.5 252.5t379.5 83.5q231 0 399 -76l21 -176q-169 45 -350 45q-275 0 -275 -160v-88h635v-1061h-305v834h-330v-834h-305v834h-121z" />
<glyph unicode="&#xfb02;" horiz-adv-x="1271" d="M57 834v208l121 19v119q0 159 110 247.5t300 88.5q166 0 297 -64h4l229 64v-1516h-305v1292q-62 17 -127 17q-203 0 -203 -160v-88h224l-15 -227h-209v-834h-305v834h-121z" />
<glyph unicode="&#xfb03;" horiz-adv-x="1906" d="M57 834v208l121 19v110q0 159 121.5 241.5t343.5 82.5q150 0 324 -55q128 76 356 76q231 0 399 -76l21 -176q-169 45 -350 45q-275 0 -275 -160v-88h635v-1061h-305v834h-330v-834h-305v834h-330v-834h-305v834h-121zM483 1061h330v100q0 65 23 113q-59 22 -142 22 q-115 0 -163 -37.5t-48 -117.5v-80z" />
<glyph unicode="&#xfb04;" horiz-adv-x="1906" d="M57 834v208l121 19v110q0 159 121.5 241.5t343.5 82.5q146 0 307 -53q107 74 273 74t297 -64h4l229 64v-1516h-305v1292q-62 17 -127 17q-93 0 -148 -38.5t-55 -123.5v-86h223l-14 -227h-209v-834h-305v834h-330v-834h-305v834h-121zM483 1061h330v100q0 66 25 111 q-60 24 -144 24q-115 0 -163 -37.5t-48 -117.5v-80z" />
<glyph horiz-adv-x="0" />
<glyph horiz-adv-x="0" />
<glyph horiz-adv-x="682" />
<glyph unicode="&#xd;" horiz-adv-x="0" />
<glyph unicode=" "  horiz-adv-x="552" />
<glyph unicode="&#x09;" horiz-adv-x="552" />
<glyph unicode="&#xa0;" horiz-adv-x="552" />
<glyph unicode="!" horiz-adv-x="512" d="M127 1395l258 14l-16 -991h-226zM135 0v246h242v-246h-33h-209z" />
<glyph unicode="&#x22;" horiz-adv-x="931" d="M119 1409h274l-24 -555h-226zM539 1409h274l-25 -555h-225z" />
<glyph unicode="#" d="M16 295l13 233h213l28 197h-204l14 233h227l41 271h168l-43 -271h248l41 271h168l-41 -271h205l-15 -233h-227l-29 -197h219l-12 -233h-242l-45 -295h-168l46 295h-248l-43 -295h-168l43 295h-189zM408 528h247l31 197h-248z" />
<glyph unicode="$" d="M78 893q0 160 106 250.5t312 107.5v240h182v-242q182 -14 285 -84l16 -184q-127 53 -301 59v-319q85 -25 146 -53.5t114.5 -71.5t81 -105t27.5 -143q0 -333 -435 -371v-237h-184v237q-215 14 -328 86l-18 185q168 -56 346 -62v338q-82 24 -140 51.5t-108.5 70t-76 104 t-25.5 143.5zM354 911q0 -54 36 -85t106 -58v266q-142 -15 -142 -123zM612 195q156 15 156 131q0 57 -40.5 89.5t-115.5 61.5v-282z" />
<glyph unicode="%" horiz-adv-x="1906" d="M61 922q0 227 94 352t259 125q348 0 348 -465q0 -225 -93 -346t-259 -121q-175 0 -262 112t-87 343zM295 922q0 -181 26.5 -253.5t88.5 -72.5q63 0 89.5 74.5t26.5 263.5q0 179 -26 256.5t-86 77.5q-62 0 -90.5 -80.5t-28.5 -265.5zM438 0l830 1382h200l-829 -1382h-201z M1145 438q0 227 93.5 352t258.5 125q348 0 348 -464q0 -225 -93 -346t-259 -121q-175 0 -261.5 111.5t-86.5 342.5zM1378 438q0 -181 26.5 -253t88.5 -72q63 0 90 75t27 263q0 178 -26.5 255.5t-86.5 77.5q-62 0 -90.5 -80.5t-28.5 -265.5z" />
<glyph unicode="&#x26;" horiz-adv-x="1562" d="M68 383q0 156 83.5 249t221.5 111v5q-258 77 -258 311q0 117 63 198t161.5 116.5t223.5 35.5q92 0 180 -20t144 -50l16 -206q-112 36 -217 36q-231 0 -231 -151q0 -162 250 -162h221v221l297 43v-264h270l-14 -229h-256v-267q0 -81 36 -119t109 -38q66 0 145 28l-20 -194 q-109 -64 -254 -64q-212 0 -285 129h-4q-203 -129 -424 -129q-122 0 -213 32.5t-143.5 91t-77 129.5t-24.5 157zM406 430q0 -99 56 -155t171 -56q149 0 274 80q-4 36 -4 61v267h-244q-253 0 -253 -197z" />
<glyph unicode="'" horiz-adv-x="512" d="M119 1409h274l-24 -555h-226z" />
<glyph unicode="(" horiz-adv-x="714" d="M68 596q0 241 89.5 465.5t254.5 390.5h237q-148 -159 -235.5 -388t-87.5 -468t87.5 -468t235.5 -388h-237q-165 166 -254.5 390.5t-89.5 465.5z" />
<glyph unicode=")" horiz-adv-x="714" d="M68 -260q148 159 235.5 388t87.5 468q0 238 -88 467.5t-235 388.5h235q165 -167 255.5 -391.5t90.5 -464.5t-90.5 -464.5t-255.5 -391.5h-235z" />
<glyph unicode="*" horiz-adv-x="1024" d="M55 1030l39 119l320 -66l35 326h126l33 -326l322 66l39 -119l-301 -133l163 -285l-102 -73l-217 243l-219 -243l-100 73l163 285z" />
<glyph unicode="+" d="M66 504v215h376v389h215v-389h379v-215h-379v-389h-213v389h-378z" />
<glyph unicode="," horiz-adv-x="552" d="M-31 -305q178 165 203 350l-45 225h279q8 -90 8 -149q0 -228 -215 -426h-230z" />
<glyph unicode="-" horiz-adv-x="552" d="M29 420l8 223h487l-6 -223h-489z" />
<glyph unicode="." horiz-adv-x="552" d="M143 0v270h267v-270h-267z" />
<glyph unicode="/" horiz-adv-x="681" d="M-102 0l686 1382h200l-686 -1382h-200z" />
<glyph unicode="0" d="M27 604q0 302 141.5 476.5t388.5 174.5q258 0 391 -160t133 -470q0 -302 -141.5 -477t-388.5 -175q-258 0 -391 160t-133 471zM354 604q0 -426 197 -426q203 0 203 447q0 426 -197 426q-203 0 -203 -447z" />
<glyph unicode="1" d="M137 918l10 169q202 88 455 156h180v-1057l248 -32v-154h-844v154l279 32v785h-6q-132 -14 -322 -53z" />
<glyph unicode="2" d="M66 0v231q85 60 134.5 96t111.5 82.5t96 76t73.5 66.5t59.5 64.5t38.5 60t25.5 63t7 63.5q0 101 -65.5 157t-171.5 56q-129 0 -269 -64l15 201q168 102 375 102q89 0 169 -23t145 -68.5t103.5 -122.5t38.5 -175q0 -44 -7.5 -84.5t-19.5 -75t-35.5 -70.5t-45 -65 t-59.5 -64t-69 -61t-81.5 -63t-89.5 -64t-101 -69v-2h613l-23 -248h-968z" />
<glyph unicode="3" d="M80 115q140 -58 301 -58q297 0 297 193q0 176 -279 176h-174v229h144q124 0 192 48.5t68 140.5q0 78 -61 125t-169 47q-128 0 -278 -58l14 199q157 98 387 98q71 0 135 -12.5t122 -40t100 -68t67 -101t25 -134.5q0 -125 -70.5 -212t-193.5 -126v-4q142 -20 226.5 -105.5 t84.5 -234.5q0 -178 -134.5 -288.5t-396.5 -110.5q-225 0 -387 98z" />
<glyph unicode="4" d="M6 121v198l610 910h314v-891h170l-17 -217h-153v-275h-314v275h-610zM266 338h350v536h-6q-58 -106 -100 -167z" />
<glyph unicode="5" d="M94 115q143 -58 303 -58q297 0 297 193q0 66 -35 110t-107.5 68t-165.5 33.5t-228 9.5l37 758h800l-26 -266h-553l-17 -265q635 -3 635 -448q0 -202 -133.5 -317t-396.5 -115q-225 0 -387 98z" />
<glyph unicode="6" d="M55 639q0 122 20.5 232t66.5 209.5t113.5 171.5t168 114.5t223.5 42.5q200 0 352 -98l21 -199q-127 57 -285 57q-343 0 -354 -409h2q165 108 332 108q160 0 263 -108.5t103 -315.5q0 -223 -141.5 -347t-372.5 -124q-142 0 -243.5 48.5t-159 140t-83.5 208.5t-26 269z M381 559q-2 -91 5 -156.5t26.5 -119t57.5 -80.5t95 -27q91 0 139 63t48 173q0 101 -45.5 153.5t-133.5 52.5q-96 0 -192 -59z" />
<glyph unicode="7" d="M113 717v512h942v-256q-162 -318 -299 -626.5t-195 -500.5h-336l561 1110h-469l-30 -239h-174z" />
<glyph unicode="8" d="M51 346q0 128 65 213t195 150v2q-49 31 -85.5 61.5t-70 71.5t-51.5 93t-18 112q0 167 126 263.5t353 96.5q211 0 334 -86.5t123 -249.5q0 -59 -16.5 -106.5t-49.5 -86t-70 -66.5t-91 -60v-2q132 -66 197 -152t65 -223q0 -191 -135.5 -297.5t-376.5 -106.5 q-227 0 -360.5 95.5t-133.5 277.5zM319 358q0 -82 60.5 -132t161.5 -50q102 0 160.5 49.5t58.5 134.5q0 79 -60.5 132.5t-187.5 107.5q-97 -45 -145 -101.5t-48 -140.5zM385 1057q0 -67 49.5 -110.5t167.5 -98.5q87 47 126.5 92t39.5 111q0 70 -53 112.5t-140 42.5 q-96 0 -143 -41t-47 -108z" />
<glyph unicode="9" d="M41 784q0 223 141.5 347t372.5 124q114 0 202 -32.5t146.5 -89.5t95.5 -141.5t52.5 -182.5t15.5 -219q0 -122 -20.5 -232t-66.5 -209.5t-113.5 -171.5t-168 -114.5t-223.5 -42.5q-200 0 -352 98l-21 199q129 -58 285 -58q343 0 354 410h-2q-166 -109 -331 -109 q-160 0 -263.5 108.5t-103.5 315.5zM371 817q0 -101 45 -154t133 -53q94 0 192 60q2 91 -5 156.5t-26.5 119t-57.5 80.5t-95 27q-90 0 -138 -63t-48 -173z" />
<glyph unicode=":" horiz-adv-x="552" d="M143 0v270h267v-270h-29h-238zM143 791v270h267v-270h-267z" />
<glyph unicode=";" horiz-adv-x="552" d="M-31 -305q178 165 203 350l-45 225h279q8 -90 8 -149q0 -228 -215 -426h-230zM143 791v270h267v-270h-267z" />
<glyph unicode="&#x3c;" d="M66 508v207l970 360v-248l-655 -213v-4l655 -213v-250z" />
<glyph unicode="=" d="M66 274v211h970v-211h-970zM66 741v211h970v-211h-970z" />
<glyph unicode="&#x3e;" d="M66 147v250l655 213v4l-655 213v248l970 -360v-207z" />
<glyph unicode="?" horiz-adv-x="921" d="M61 1112l15 199q161 98 356 98q63 0 122 -12t114.5 -39.5t96.5 -68.5t66 -103.5t25 -138.5q0 -62 -19.5 -118t-48 -97.5t-80 -88t-94.5 -77t-112 -76.5l-10 -172h-226l-12 237q69 49 110.5 82t81 74.5t57 83t17.5 88.5q0 90 -59.5 138t-153.5 48q-120 0 -246 -57zM258 0 v246h240v-246h-240z" />
<glyph unicode="@" horiz-adv-x="1611" d="M45 475q0 172 53 314.5t153.5 247t257 162.5t353.5 58q342 0 520.5 -149t178.5 -432q0 -254 -129.5 -405.5t-329.5 -151.5q-172 0 -213 117h-2q-149 -117 -264 -117q-107 0 -164.5 82.5t-57.5 220.5q0 106 26 205.5t76 183.5t134 135t190 51q128 0 226 -67h4l30 45h134 l-99 -576q-4 -36 -4 -55q0 -65 62 -65q88 0 148.5 106.5t60.5 280.5q0 234 -130.5 339t-406.5 105q-123 0 -224.5 -32t-172.5 -89t-120 -137t-72 -175.5t-23 -205.5q0 -249 145 -371.5t455 -122.5q301 0 563 97l-39 -150q-108 -51 -258 -79.5t-305 -28.5q-382 0 -569 164 t-187 495zM639 467q0 -71 23.5 -117.5t76.5 -46.5q68 0 160 78l76 428q-49 27 -101 27q-62 0 -109 -33.5t-73.5 -88.5t-39.5 -117.5t-13 -129.5z" />
<glyph unicode="A" horiz-adv-x="1425" d="M29 0l473 1382h432l463 -1382h-350l-105 322h-504l-106 -322h-303zM506 549h368l-67 207q-75 235 -111 379h-4q-36 -128 -117 -379z" />
<glyph unicode="B" horiz-adv-x="1384" d="M170 0v1382h573q100 0 183.5 -18.5t151.5 -57.5t106.5 -107t38.5 -159q0 -122 -79 -201.5t-212 -103.5v-2q167 -9 267.5 -96.5t100.5 -241.5q0 -185 -137 -290t-387 -105h-606zM502 203h155q148 0 219.5 52.5t71.5 162.5q0 190 -276 190h-170v-405zM502 823h153 q99 0 162.5 44t63.5 139q0 93 -63 133.5t-183 40.5h-133v-357z" />
<glyph unicode="C" horiz-adv-x="1226" d="M66 686q0 122 25 229.5t78 198.5t130 156t187 102t243 37q218 0 375 -82v-442h-182l-43 268q-55 21 -117 21q-163 0 -251.5 -121t-88.5 -338q0 -235 107.5 -365.5t330.5 -130.5q160 0 303 70l-22 -209q-162 -107 -400 -107q-315 0 -495 187.5t-180 525.5z" />
<glyph unicode="D" horiz-adv-x="1482" d="M170 0v1382h551q188 0 323.5 -47.5t216.5 -138t118.5 -212.5t37.5 -282q0 -152 -40 -277t-122 -221.5t-218 -150t-316 -53.5h-551zM502 215h151q206 0 308 119t102 366q0 243 -99.5 354t-310.5 111h-151v-950z" />
<glyph unicode="E" horiz-adv-x="1216" d="M170 0v1382h897l20 -231h-585v-320h532v-227h-532v-373h633l-21 -231h-944z" />
<glyph unicode="F" horiz-adv-x="1157" d="M170 0v1382h897l20 -231h-585v-371h532v-229h-532v-551h-332z" />
<glyph unicode="G" horiz-adv-x="1390" d="M66 686q0 160 45.5 292t133.5 228.5t226 149.5t315 53q126 0 238.5 -28t189.5 -78l23 -209q-156 69 -342 69q-239 0 -356 -128t-117 -363q0 -475 371 -475q77 0 161 24v273l-200 28v176h520v-655q-216 -70 -486 -70q-159 0 -282 34t-205.5 94.5t-135.5 150.5t-76 196.5 t-23 237.5z" />
<glyph unicode="H" horiz-adv-x="1538" d="M170 0v1382h332v-551h536v551h332v-1382h-332v604h-536v-604h-332z" />
<glyph unicode="I" horiz-adv-x="669" d="M170 0v1382h332v-1382h-332z" />
<glyph unicode="J" horiz-adv-x="860" d="M37 242q78 -29 141 -29q189 0 189 211v958h331v-1011q0 -85 -20.5 -154.5t-63.5 -125.5t-117.5 -87t-174.5 -31q-128 0 -261 58z" />
<glyph unicode="K" horiz-adv-x="1413" d="M170 0v1382h332v-551h112l367 551h371l-461 -628v-4q83 -42 138.5 -111t111.5 -199l205 -440h-363l-168 362q-35 79 -62.5 126t-55 73t-53 34.5t-62.5 8.5h-80v-604h-332z" />
<glyph unicode="L" horiz-adv-x="1155" d="M170 0v1382h332v-1151h598l-21 -231h-909z" />
<glyph unicode="M" horiz-adv-x="1800" d="M145 0l52 1382h432l194 -546q57 -196 72 -267h6q43 168 72 267l192 546h434l54 -1382h-330l-25 657q-6 114 -6 248h-4q-8 -29 -76 -235l-180 -480h-307l-186 478q-49 132 -76 237h-4q0 -88 -4 -248l-25 -657h-285z" />
<glyph unicode="N" horiz-adv-x="1519" d="M170 0v1382h344l395 -645q17 -30 75 -128t75 -130h4v903h287v-1382h-342l-420 670q-22 34 -72.5 119.5t-56.5 95.5h-2v-885h-287z" />
<glyph unicode="O" horiz-adv-x="1460" d="M66 670q0 352 170 545.5t501 193.5q327 0 492.5 -175t165.5 -511q0 -353 -171 -551.5t-503 -198.5q-324 0 -489.5 180.5t-165.5 516.5zM422 676q0 -238 73.5 -354.5t231.5 -116.5q313 0 313 512q0 234 -73.5 346.5t-231.5 112.5q-160 0 -236.5 -126t-76.5 -374z" />
<glyph unicode="P" horiz-adv-x="1304" d="M170 0v1382h567q81 0 153 -14.5t136.5 -47.5t111 -82.5t74 -124.5t27.5 -169q0 -215 -137.5 -328.5t-366.5 -113.5h-233v-502h-332zM502 707h119q127 0 199.5 58.5t72.5 178.5q0 123 -72 179.5t-196 56.5h-123v-473z" />
<glyph unicode="Q" horiz-adv-x="1458" d="M66 670q0 352 170 545.5t501 193.5q327 0 492.5 -175t165.5 -511q0 -320 -138 -513t-405 -226q12 -84 62.5 -129t166.5 -45q118 0 224 34l-19 -198q-132 -56 -270 -56q-209 0 -313 101t-107 291q-265 32 -397.5 206.5t-132.5 481.5zM422 676q0 -250 73.5 -371t231.5 -121 q313 0 313 533q0 246 -73 362.5t-232 116.5q-160 0 -236.5 -130.5t-76.5 -389.5z" />
<glyph unicode="R" horiz-adv-x="1433" d="M170 0v1382h596q230 0 359.5 -100t129.5 -287q0 -129 -73.5 -217.5t-212.5 -128.5v-4q81 -46 130 -109.5t111 -195.5l166 -340h-362l-140 303q-67 146 -117 197t-124 51h-131v-551h-332zM502 764h162q115 0 180 53.5t65 157.5q0 94 -61 149.5t-189 55.5h-157v-416z" />
<glyph unicode="S" horiz-adv-x="1099" d="M78 995q0 201 135 307.5t358 106.5q224 0 369 -94l21 -209q-144 59 -322 59q-114 0 -171.5 -38.5t-57.5 -104.5q0 -46 34 -80.5t89 -59t121 -49t132 -59.5t121 -80.5t89 -121t34 -173.5q0 -141 -67.5 -238t-182.5 -142.5t-270 -45.5q-231 0 -399 99l-23 209 q76 -31 172.5 -47.5t179.5 -16.5q134 0 197 44t63 114q0 40 -26.5 71.5t-70.5 52.5t-100 44.5t-114 46t-114 58.5t-100 80t-70.5 113t-26.5 154z" />
<glyph unicode="T" horiz-adv-x="1249" d="M16 1151l21 231h1175l21 -231h-442v-1151h-332v1151h-443z" />
<glyph unicode="U" horiz-adv-x="1449" d="M152 430v952h331v-866q0 -72 10 -123t37 -96.5t80.5 -68.5t134.5 -23q145 0 206 80t61 227v870h286v-952q0 -207 -144 -332t-427 -125q-131 0 -233 26t-165.5 68t-104 102.5t-56.5 124t-16 136.5z" />
<glyph unicode="V" horiz-adv-x="1359" d="M29 1382h348l215 -723q68 -225 104 -385h6q25 104 107 385l217 723h305l-444 -1382h-424z" />
<glyph unicode="W" horiz-adv-x="2023" d="M55 1382h348l140 -622q58 -294 75 -418h7q33 211 80 418l149 622h360l148 -622q65 -310 82 -418h6q36 229 76 418l139 622h303l-330 -1382h-393l-143 532q-71 325 -86 414h-6q-46 -248 -88 -414l-146 -532h-393z" />
<glyph unicode="X" horiz-adv-x="1357" d="M43 0l401 709l-385 673h371l262 -460h2l240 460h340l-375 -659l416 -723h-373l-291 514h-2l-266 -514h-340z" />
<glyph unicode="Y" horiz-adv-x="1343" d="M43 1382h371l276 -579h2l275 579h336l-465 -884v-498h-332v494z" />
<glyph unicode="Z" horiz-adv-x="1275" d="M82 0v219l676 924h-619l23 239h1009v-233l-682 -911h705l-23 -238h-1089z" />
<glyph unicode="[" horiz-adv-x="714" d="M104 -260v1712h498l8 -137h-266v-1438h266l-8 -137h-498z" />
<glyph unicode="\" horiz-adv-x="681" d="M-102 1382h200l686 -1382h-200z" />
<glyph unicode="]" horiz-adv-x="714" d="M104 -123h269v1438h-269l9 137h497v-1712h-497z" />
<glyph unicode="^" d="M88 422l361 901h206l359 -901h-248l-213 616h-4l-215 -616h-246z" />
<glyph unicode="_" d="M0 -410l8 189h1098l-8 -189h-1098z" />
<glyph unicode="`" horiz-adv-x="1136" d="M283 1516h333q90 -162 236 -357h-262q-134 129 -307 357z" />
<glyph unicode="a" horiz-adv-x="1173" d="M76 287q0 174 103 266t313 92q115 0 241 -35v92q0 80 -60 118t-186 38q-152 0 -309 -57l19 190q154 96 405 96q434 0 434 -333v-754h-276l-21 90h-6q-99 -60 -175 -88.5t-169 -28.5q-135 0 -224 82t-89 232zM365 322q0 -56 39.5 -90.5t111.5 -34.5q100 0 217 65v176 q-89 21 -164 21q-204 0 -204 -137z" />
<glyph unicode="b" horiz-adv-x="1249" d="M152 0v1485l305 31v-541h4q87 54 162 83t159 29q192 0 302 -144t110 -392q0 -271 -128.5 -424.5t-367.5 -153.5q-173 0 -317 93h-4l-39 -66h-186zM457 236q78 -33 151 -33q126 0 194 81t68 242q0 149 -60.5 225t-160.5 76q-50 0 -93 -16.5t-99 -48.5v-526z" />
<glyph unicode="c" horiz-adv-x="983" d="M55 530q0 123 31.5 223.5t94 175.5t163.5 116.5t234 41.5q175 0 305 -73v-344h-160l-31 178q-37 16 -84 16q-62 0 -107 -25t-70.5 -70.5t-37.5 -101.5t-12 -126q0 -330 295 -330q120 0 237 55l-18 -196q-146 -97 -360 -97q-221 0 -350.5 147t-129.5 410z" />
<glyph unicode="d" horiz-adv-x="1249" d="M55 510q0 124 31 228t90.5 182.5t155.5 122.5t219 44q129 0 242 -53v451l305 31v-1516h-279l-12 98h-4q-96 -61 -172.5 -93t-163.5 -32q-191 0 -301.5 144.5t-110.5 392.5zM379 535q0 -148 60.5 -225t160.5 -77q50 0 94 17t99 51v524q-78 33 -152 33q-126 0 -194 -80.5 t-68 -242.5z" />
<glyph unicode="e" horiz-adv-x="1122" d="M55 535q0 259 134 405.5t384 146.5q101 0 186 -25t154 -77.5t107.5 -143t38.5 -212.5q0 -69 -17 -146h-661v-7q0 -51 14 -94q15 -46 49.5 -86.5t99 -63.5t154.5 -23q166 0 326 57l-20 -196q-150 -97 -398 -97q-258 0 -404.5 141t-146.5 421zM381 676h377q1 13 1 25 q0 93 -41 144q-46 58 -136 58q-98 0 -146 -62t-55 -165z" />
<glyph unicode="f" horiz-adv-x="745" d="M57 834v208l121 19v129q0 148 100 237t283 89q164 0 264 -62l21 -174q-85 29 -170 29q-193 0 -193 -150v-98h275l-15 -227h-260v-834h-305v834h-121z" />
<glyph unicode="g" horiz-adv-x="1153" d="M109 -172q0 78 59 137l240 17q-29 -45 -29 -86q0 -63 61 -90t181 -27q256 0 256 141q0 55 -37 82t-99 27h-348q-131 0 -207.5 49.5t-76.5 157.5q0 127 112 249q-112 81 -112 250q0 166 113 259t337 93q117 0 213 -26h377l-16 -184l-183 12v-2q45 -45 45 -127 q0 -166 -110.5 -261.5t-333.5 -95.5q-90 0 -160 25q-39 -42 -39 -84t35.5 -58t110.5 -16h303q156 0 249 -73.5t93 -223.5q0 -99 -44 -174t-122.5 -120t-179.5 -67t-222 -22q-466 0 -466 238zM399 739q0 -73 40 -115t114 -42q76 0 114 46t38 128q0 73 -37.5 114t-112.5 41 t-115.5 -46t-40.5 -126z" />
<glyph unicode="h" horiz-adv-x="1269" d="M152 0v1485l305 31v-543h4q95 57 171 85.5t165 28.5q139 0 227 -71q67 -53 88 -125.5t21 -194.5v-696h-308v621q0 41 -1.5 62.5t-12 52t-31.5 50.5q-44 41 -123 41q-89 0 -200 -65v-762h-305z" />
<glyph unicode="i" horiz-adv-x="610" d="M150 1292v224h311v-224h-311zM152 0v1061h305v-1061h-19h-286z" />
<glyph unicode="j" horiz-adv-x="610" d="M-14 -207q91 7 128.5 47t37.5 123v1098h305v-1100q0 -87 -21.5 -151t-70.5 -114t-136 -76.5t-213 -29.5zM150 1292v224h311v-224h-311z" />
<glyph unicode="k" horiz-adv-x="1212" d="M152 0v1485l305 31v-838h96l274 383h316l-346 -463v-4q71 -35 109.5 -86t84.5 -162l160 -346h-332l-117 262q-49 118 -88 156.5t-96 38.5h-61v-457h-305z" />
<glyph unicode="l" horiz-adv-x="610" d="M152 0v1485l305 31v-1516h-305z" />
<glyph unicode="m" horiz-adv-x="1943" d="M152 0v1061h278l12 -96h4q94 58 176.5 90t174.5 32q139 0 227 -71q33 -25 61 -68q125 73 210.5 106t177.5 33q136 0 227 -71q65 -53 85.5 -125t20.5 -195v-696h-305v621q0 38 -2 61.5t-13 53.5t-32 50q-44 41 -123 41q-95 0 -209 -73q11 -45 11 -111v-643h-308v621 q0 41 -1.5 62.5t-12 52t-31.5 50.5q-44 41 -123 41q-89 0 -200 -65v-762h-305z" />
<glyph unicode="n" horiz-adv-x="1290" d="M152 0v1061h278l12 -96h4q97 58 181.5 90t181.5 32q145 0 235 -71q67 -51 88 -124t21 -196v-696h-305v621q0 41 -1.5 62.5t-13.5 52t-36 50.5q-44 41 -127 41q-97 0 -213 -65v-762h-305z" />
<glyph unicode="o" horiz-adv-x="1216" d="M55 512q0 278 142.5 426.5t416.5 148.5q269 0 407 -135t138 -397q0 -276 -142.5 -429t-414.5 -153q-268 0 -407.5 138.5t-139.5 400.5zM379 520q0 -159 56.5 -243t170.5 -84t173 93t59 261q0 323 -226 323q-115 0 -174 -91.5t-59 -258.5z" />
<glyph unicode="p" horiz-adv-x="1249" d="M152 -410v1471h278l12 -96h4q94 59 171 90.5t165 31.5q192 0 302 -144t110 -392q0 -271 -128.5 -424.5t-367.5 -153.5q-126 0 -241 54v-406zM457 236q78 -33 151 -33q126 0 194 81t68 242q0 149 -60.5 225t-160.5 76q-50 0 -93 -16.5t-99 -48.5v-526z" />
<glyph unicode="q" horiz-adv-x="1249" d="M55 510q0 270 128.5 423.5t367.5 153.5q175 0 317 -92h4l39 66h187v-1485l-305 -31v543h-5q-89 -56 -163 -85.5t-158 -29.5q-191 0 -301.5 144.5t-110.5 392.5zM379 535q0 -148 60.5 -225t160.5 -77q50 0 94 17t99 51v524q-78 33 -152 33q-126 0 -194 -80.5t-68 -242.5z " />
<glyph unicode="r" horiz-adv-x="864" d="M152 0v1061h278l12 -96h4q100 64 165 93t126 29q46 0 82 -16l15 -283q-44 15 -103 15q-116 0 -274 -74v-729h-305z" />
<glyph unicode="s" horiz-adv-x="948" d="M74 756q0 158 112 244.5t320 86.5q189 0 307 -69l10 -184q-119 38 -274 38q-172 0 -172 -96q0 -32 28 -55.5t73.5 -40t100 -33.5t109 -43t100 -61.5t73.5 -96t28 -139.5q0 -162 -112.5 -248t-319.5 -86q-210 0 -355 72l-14 182q137 -39 309 -39q96 0 145.5 24t49.5 81 q0 33 -28.5 57t-74.5 40.5t-101 33t-110 41.5t-101 59.5t-74.5 94t-28.5 137.5z" />
<glyph unicode="t" horiz-adv-x="817" d="M49 834v208l119 19v229l307 43v-272h275l-17 -227h-258v-474q0 -84 36.5 -122.5t111.5 -38.5q70 0 145 30l-20 -192q-109 -64 -254 -64q-152 0 -239 73.5t-87 234.5v553h-119z" />
<glyph unicode="u" horiz-adv-x="1269" d="M137 367v694h305v-621q0 -39 2 -62.5t13 -53t32 -48.5q46 -43 123 -43q87 0 199 68v760h305v-1061h-276l-13 98h-4q-94 -60 -176 -92.5t-176 -32.5q-137 0 -227 72q-66 54 -86.5 126.5t-20.5 195.5z" />
<glyph unicode="v" horiz-adv-x="1093" d="M18 1061h324l147 -502q47 -170 78 -326h2q26 130 80 326l146 502h280l-323 -1061h-408z" />
<glyph unicode="w" horiz-adv-x="1767" d="M51 1061h320l102 -496q5 -30 16 -94t19.5 -114.5t13.5 -96.5h4q17 103 64 303l133 498h375l125 -498q47 -202 65 -309h2q7 51 25 150t26 161l103 496h276l-262 -1061h-389l-115 459q0 2 -27 128.5t-38 192.5h-4q-21 -128 -68 -323l-115 -457h-385z" />
<glyph unicode="x" d="M29 0l305 551l-301 510h354l184 -332h2l181 332h293l-285 -512l315 -549h-354l-205 362h-4l-192 -362h-293z" />
<glyph unicode="y" horiz-adv-x="1097" d="M8 1061h334l180 -463q57 -154 82 -285h4q28 150 68 297l123 451h282l-319 -1069q-30 -101 -63.5 -169.5t-85 -124t-127 -82t-179.5 -26.5q-95 0 -188 37l-21 197q68 -19 154 -19q83 0 127 37t65 117l13 41z" />
<glyph unicode="z" horiz-adv-x="1058" d="M102 0v223l484 611h-453l14 227h832v-221l-483 -611h497l-14 -229h-877z" />
<glyph unicode="{" horiz-adv-x="714" d="M25 580v32l163 156q0 49 -5 183.5t-5 199.5q0 89 29 147.5t92.5 92.5t151 47.5t217.5 13.5l8 -137q-81 0 -133 -16t-78.5 -50t-35.5 -74.5t-9 -103.5v-319l-168 -154v-4l168 -154v-319q0 -63 9 -103.5t35.5 -74.5t78.5 -50t133 -16l-8 -137q-130 0 -217.5 13.5t-151 47.5 t-92.5 92.5t-29 147.5q0 65 5 198.5t5 184.5z" />
<glyph unicode="|" horiz-adv-x="552" d="M182 -401v1998l189 -8v-1999z" />
<glyph unicode="}" horiz-adv-x="714" d="M41 -123q80 0 131.5 16t78 50t35.5 75t9 103v319l170 154v4l-170 154v319q0 62 -9 103t-35.5 75t-78 50t-131.5 16l8 137q130 0 217.5 -13.5t150.5 -47.5t91.5 -92.5t28.5 -147.5q0 -65 -5.5 -199.5t-5.5 -183.5l166 -156v-32l-166 -156q0 -51 5.5 -184.5t5.5 -198.5 q0 -89 -28.5 -147.5t-91.5 -92.5t-150.5 -47.5t-217.5 -13.5z" />
<glyph unicode="~" d="M86 449v227q102 110 244 110q53 0 116 -20.5t111.5 -45t108 -45t106.5 -20.5q76 0 133.5 33.5t112.5 97.5v-227q-102 -110 -242 -110q-53 0 -116 20.5t-111.5 45t-108.5 45t-108 20.5q-74 0 -132.5 -34t-113.5 -97z" />
<glyph unicode="&#xa0;" />
<glyph unicode="&#xa1;" horiz-adv-x="512" d="M127 -403l16 989h226l16 -975zM137 760v246h19h221v-246h-240z" />
<glyph unicode="&#xa2;" d="M78 608q0 126 35 238t102.5 200t174.5 143.5t241 63.5v238h182v-254q127 -15 203 -72l20 -209q-112 55 -223 60v-805q135 6 242 61l-21 -209q-75 -60 -221 -73v-250h-182v235q-260 15 -406.5 180t-146.5 453zM393 616q0 -321 238 -380v755q-119 -28 -178.5 -129.5 t-59.5 -245.5z" />
<glyph unicode="&#xa3;" d="M61 516v205h107q-41 94 -41 174q0 168 133 263t342 95q201 0 352 -100l23 -201q-135 66 -289 66q-118 0 -176.5 -44.5t-58.5 -125.5q0 -49 32 -127h433v-205h-340q20 -77 14 -115q-11 -47 -45.5 -85.5t-97.5 -86.5v-2h632l-22 -227h-959v207q82 59 122.5 101t53.5 87 q7 48 -18 121h-197z" />
<glyph unicode="&#xa4;" d="M104 911l154 152l139 -139q68 41 154 41q82 0 156 -41l131 131l149 -152l-129 -131q43 -72 43 -156q0 -85 -43 -153l139 -139l-151 -152l-141 139q-65 -41 -154 -41q-82 0 -156 41l-129 -129l-151 150l133 131q-41 68 -41 153t39 152zM389 616q0 -71 45.5 -120.5 t116.5 -49.5q69 0 115.5 50t46.5 120q0 71 -46 120.5t-116 49.5q-71 0 -116.5 -49t-45.5 -121z" />
<glyph unicode="&#xa5;" d="M16 1229h320l248 -522l223 522h274l-241 -498h227v-172h-309l-39 -80v-55h348v-172h-348v-252h-318v252h-350v172h350v55l-43 80h-307v172h221z" />
<glyph unicode="&#xa6;" horiz-adv-x="552" d="M182 -401v839l189 -8v-840zM182 758v407v432l189 -8v-839z" />
<glyph unicode="&#xa7;" horiz-adv-x="1021" d="M59 614q0 147 127 246q-127 86 -127 240q0 140 119.5 224.5t347.5 84.5q200 0 334 -80l14 -180q-53 22 -129.5 35.5t-148.5 13.5q-117 0 -168 -27t-51 -79q0 -20 6 -36t22.5 -30t31.5 -23.5t48 -21.5t57 -19.5t72 -21.5q50 -15 85.5 -27.5t80 -32.5t74.5 -43t57 -53 t40.5 -70t13.5 -87q0 -146 -138 -236q136 -91 136 -250q0 -156 -134.5 -239.5t-357.5 -83.5q-222 0 -360 82l-15 178q127 -51 295 -51q121 0 178.5 27t57.5 87q0 62 -47.5 91.5t-179.5 70.5q-5 1 -7 2q-42 13 -67.5 21.5t-65 24.5t-64 31.5t-53.5 39.5t-45.5 50.5t-27.5 63 t-11 78.5zM303 692q0 -30 11 -54t26 -39.5t47 -31.5t57 -25.5t72 -25.5q104 -33 168 -57q51 44 51 102q0 68 -54 105t-177 73q-138 42 -152 47q-49 -40 -49 -94z" />
<glyph unicode="&#xa8;" horiz-adv-x="1136" d="M238 1292v224h245v-224h-245zM653 1292v224h246v-224h-246z" />
<glyph unicode="&#xa9;" horiz-adv-x="1595" d="M66 690q0 347 187.5 533t543.5 186t543.5 -186t187.5 -533t-187.5 -532t-543.5 -185t-543.5 185t-187.5 532zM227 690q0 -304 148 -449t424 -145q273 0 421 145.5t148 448.5q0 304 -149 450t-424 146q-273 0 -420.5 -146t-147.5 -450zM410 688q0 197 105.5 319.5 t307.5 122.5q141 0 238 -53v-280h-121l-31 157q-37 13 -71 13q-81 0 -125.5 -69t-44.5 -191q0 -281 250 -281q101 0 180 39l-15 -148q-103 -67 -249 -67q-196 0 -310 113.5t-114 324.5z" />
<glyph unicode="&#xaa;" horiz-adv-x="778" d="M45 807q0 235 272 235q87 0 158 -22v51q0 94 -158 94q-101 0 -204 -39l12 138q103 65 274 65q291 0 291 -221v-492h-196l-17 58h-2q-62 -38 -112.5 -56t-110.5 -18q-89 0 -148 54t-59 153zM113 301l6 158h573l-6 -158h-573zM252 829q0 -32 24 -51.5t68 -19.5q55 0 131 37 v104q-46 12 -100 12q-123 0 -123 -82z" />
<glyph unicode="&#xab;" horiz-adv-x="1093" d="M57 532q161 236 318 418h221q-141 -199 -256 -418q90 -182 256 -417h-221q-162 185 -318 417zM498 532q165 241 317 418h221q-141 -199 -256 -418q90 -182 256 -417h-221q-158 181 -317 417z" />
<glyph unicode="&#xac;" d="M66 733v215h970v-577h-215v362h-755z" />
<glyph unicode="&#xad;" horiz-adv-x="552" d="M29 420l8 223h487l-6 -223h-489z" />
<glyph unicode="&#xae;" horiz-adv-x="1595" d="M66 690q0 347 187.5 533t543.5 186t543.5 -186t187.5 -533t-187.5 -532t-543.5 -185t-543.5 185t-187.5 532zM227 690q0 -304 148 -449t424 -145q273 0 421 145.5t148 448.5q0 304 -149 450t-424 146q-273 0 -420.5 -146t-147.5 -450zM449 268v846h311q204 0 294.5 -56.5 t90.5 -183.5q0 -157 -170 -208v-4q49 -30 82 -78t63 -129l82 -187h-248l-75 178q-38 88 -63.5 118t-61.5 30h-66v-326h-239zM688 739h98q60 0 97 32t37 89q0 54 -33.5 85.5t-102.5 31.5h-96v-238z" />
<glyph unicode="&#xaf;" horiz-adv-x="1136" d="M246 1292v174h643v-174h-643z" />
<glyph unicode="&#xb0;" horiz-adv-x="1136" d="M252 1090q0 123 84.5 202.5t232.5 79.5q147 0 231.5 -80t84.5 -202t-84.5 -201.5t-231.5 -79.5q-148 0 -232.5 79t-84.5 202zM446 1090q0 -66 33 -105t90 -39q55 0 88 39t33 105t-33 105.5t-88 39.5q-57 0 -90 -39.5t-33 -105.5z" />
<glyph unicode="&#xb1;" d="M66 145v211h970v-211h-970zM66 711v211h378v290h211v-290h381v-211h-379v-271h-213v271h-378z" />
<glyph unicode="&#xb2;" horiz-adv-x="747" d="M53 616v166q57 50 86.5 76t71.5 64.5t62.5 60t47.5 51.5t39 50.5t24.5 46t17 48.5t4.5 48q0 67 -42 101t-114 34q-80 0 -172 -39l10 139q115 70 252 70q59 0 111 -14.5t97 -46t71 -87.5t26 -131q0 -62 -20 -117t-65 -111t-100.5 -107.5t-144.5 -122.5v-2h392l-15 -177 h-639z" />
<glyph unicode="&#xb3;" horiz-adv-x="747" d="M57 807q90 -37 197 -37q188 0 188 113q0 104 -176 104h-112v162h92q78 0 121 29.5t43 83.5q0 45 -39 73.5t-105 28.5q-82 0 -180 -37l10 141q111 66 260 66q57 0 108.5 -13.5t94 -40.5t67.5 -73t25 -107q0 -80 -46 -136t-126 -83v-2q93 -11 148 -67t55 -152 q0 -117 -87 -188.5t-261 -71.5q-151 0 -258 66z" />
<glyph unicode="&#xb4;" horiz-adv-x="1136" d="M283 1159q133 174 235 357h334q-69 -93 -153.5 -191.5t-153.5 -165.5h-262z" />
<glyph unicode="&#xb5;" horiz-adv-x="1368" d="M145 -410v1471h308v-621q0 -41 1.5 -63t12 -52t31.5 -49q49 -43 123 -43q53 0 97.5 17t102.5 51v760h305v-717q0 -70 23 -107.5t82 -37.5q46 0 110 22l-22 -190q-114 -56 -234 -56q-79 0 -132.5 37.5t-75.5 106.5h-3q-87 -70 -169.5 -107t-186.5 -37q-101 0 -160 66 l-4 -4l54 -416z" />
<glyph unicode="&#xb6;" horiz-adv-x="1118" d="M55 846q0 243 141.5 389.5t395.5 146.5h506v-198l-140 -19v-1548l-276 -27v832h-4q-136 -66 -256 -66q-102 0 -176.5 42.5t-114.5 115.5t-58 155t-18 177z" />
<glyph unicode="&#xb7;" horiz-adv-x="552" d="M143 397v271h267v-271h-267z" />
<glyph unicode="&#xb8;" horiz-adv-x="1136" d="M317 -211q64 -31 134 -31q139 0 139 119q0 65 -35 143h184q34 -45 56 -105t22 -116q0 -102 -71.5 -155.5t-178.5 -53.5q-131 0 -235 64z" />
<glyph unicode="&#xb9;" horiz-adv-x="747" d="M96 1288l6 121q160 68 301 107h129v-768l162 -23v-109h-569v109l182 23v573h-4q-86 -8 -207 -33z" />
<glyph unicode="&#xba;" horiz-adv-x="811" d="M35 952q0 182 95 279.5t278 97.5q182 0 274 -89t92 -259q0 -181 -95 -281t-278 -100q-182 0 -274 90t-92 262zM115 301l8 158h573l-8 -158h-573zM266 958q0 -202 137 -202q69 0 105.5 57t36.5 160q0 198 -137 198q-142 0 -142 -213z" />
<glyph unicode="&#xbb;" horiz-adv-x="1093" d="M57 115q149 212 256 417q-115 219 -256 418h222q133 -154 317 -418q-176 -256 -317 -417h-222zM498 115q149 212 256 417q-115 219 -256 418h221q133 -154 317 -418q-176 -256 -317 -417h-221z" />
<glyph unicode="&#xbc;" horiz-adv-x="1906" d="M96 1155l6 121q153 65 301 106h129v-768l162 -22v-109h-569v109l182 22v574h-4q-86 -8 -207 -33zM506 0l829 1382h201l-829 -1382h-201zM1106 174v137l393 588h221v-575h109l-12 -150h-97v-174h-221v174h-393zM1288 324h211v325h-4q-25 -50 -65 -112z" />
<glyph unicode="&#xbd;" horiz-adv-x="1961" d="M96 1155l6 121q153 65 301 106h129v-768l162 -22v-109h-569v109l182 22v574h-4q-86 -8 -207 -33zM496 0l829 1382h201l-830 -1382h-200zM1268 0v166q66 57 98 86t78 71.5t67 66t47 56t36.5 56t18 51.5t7.5 57q0 67 -42 101t-114 34q-82 0 -172 -38l11 139q113 69 251 69 q60 0 112 -14.5t97 -45.5t71 -87t26 -131q0 -62 -20 -117t-65 -111.5t-100.5 -108t-144.5 -122.5v-2h391l-14 -176h-639z" />
<glyph unicode="&#xbe;" horiz-adv-x="1906" d="M90 674q90 -37 197 -37q188 0 188 113q0 104 -176 104h-113v162h93q78 0 120.5 29t42.5 83q0 45 -38.5 74t-104.5 29q-82 0 -180 -37l10 141q111 66 260 66q57 0 108.5 -13.5t94 -40.5t67.5 -73t25 -107q0 -80 -46 -136t-126 -83v-2q93 -11 148 -67t55 -152 q0 -117 -87 -188.5t-261 -71.5q-152 0 -258 65zM473 0l830 1382h200l-829 -1382h-201zM1071 174v137l393 588h222v-575h108l-12 -150h-96v-174h-222v174h-393zM1253 324h211v325h-4q-25 -50 -65 -112z" />
<glyph unicode="&#xbf;" horiz-adv-x="921" d="M66 -41q0 62 19.5 118t48 97.5t80 88t94.5 77t112 76.5l10 170h225l13 -236q-70 -49 -111 -82t-81 -74t-57.5 -82.5t-17.5 -88.5q0 -90 59.5 -138.5t153.5 -48.5q117 0 246 58l-14 -199q-161 -98 -357 -98q-63 0 -122 12t-114.5 39.5t-96.5 68.5t-65.5 103t-24.5 139z M424 760v246h240v-246h-240z" />
<glyph unicode="&#xc0;" horiz-adv-x="1425" d="M29 0l473 1382h432l463 -1382h-350l-105 322h-504l-106 -322h-303zM289 1774h336q94 -151 231 -314h-264q-135 115 -303 314zM506 549h368l-67 207q-75 235 -111 379h-4q-36 -128 -117 -379z" />
<glyph unicode="&#xc1;" horiz-adv-x="1425" d="M29 0l473 1382h432l463 -1382h-350l-105 322h-504l-106 -322h-303zM506 549h368l-67 207q-75 235 -111 379h-4q-36 -128 -117 -379zM584 1460q137 163 231 314h336q-168 -199 -303 -314h-264z" />
<glyph unicode="&#xc2;" horiz-adv-x="1425" d="M29 0l473 1382h432l463 -1382h-350l-105 322h-504l-106 -322h-303zM293 1460q166 180 260 314h317q107 -148 260 -314h-262q-19 22 -73.5 87.5t-83.5 99.5q-10 -12 -69 -83.5t-87 -103.5h-262zM506 549h368l-67 207q-75 235 -111 379h-4q-36 -128 -117 -379z" />
<glyph unicode="&#xc3;" horiz-adv-x="1425" d="M29 0l473 1382h432l463 -1382h-350l-105 322h-504l-106 -322h-303zM309 1462q6 129 64.5 203t152.5 74q62 0 165 -36t143 -36q51 0 75 29.5t39 83.5l166 -29q-6 -129 -64.5 -202.5t-154.5 -73.5q-61 0 -163 35.5t-144 35.5q-50 0 -75 -30.5t-38 -81.5zM506 549h368 l-67 207q-75 235 -111 379h-4q-36 -128 -117 -379z" />
<glyph unicode="&#xc4;" horiz-adv-x="1425" d="M29 0l473 1382h432l463 -1382h-350l-105 322h-504l-106 -322h-303zM387 1499v225h246v-225h-246zM506 549h368l-67 207q-75 235 -111 379h-4q-36 -128 -117 -379zM803 1499v225h246v-225h-246z" />
<glyph unicode="&#xc5;" horiz-adv-x="1425" d="M29 0l473 1382h432l463 -1382h-350l-105 322h-504l-106 -322h-303zM446 1649q0 97 72.5 150.5t208.5 53.5q134 0 203 -50.5t69 -147.5t-71 -150t-207 -53t-205.5 50.5t-69.5 146.5zM506 549h368l-67 207q-75 235 -111 379h-4q-36 -128 -117 -379zM629 1651 q0 -44 25.5 -68t68.5 -24q44 0 69 25t25 71q0 44 -24.5 67t-69.5 23q-43 0 -68.5 -24.5t-25.5 -69.5z" />
<glyph unicode="&#xc6;" horiz-adv-x="1941" d="M25 0l610 1382h1171l21 -231h-662l72 -371h537v-229h-492l66 -320h526l-21 -231h-796l-90 455h-435l-198 -455h-309zM621 684h301l-97 479h-8q-52 -162 -141 -362z" />
<glyph unicode="&#xc7;" horiz-adv-x="1226" d="M66 686q0 122 25 229.5t78 198.5t130 156t187 102t243 37q218 0 375 -82v-442h-182l-43 268q-55 21 -117 21q-163 0 -251.5 -121t-88.5 -338q0 -235 107.5 -365.5t330.5 -130.5q160 0 303 70l-22 -209q-134 -91 -332 -103q51 -84 51 -178q0 -102 -71 -155.5t-179 -53.5 q-128 0 -235 64l-15 135q68 -31 134 -31q139 0 139 119q0 51 -21 107q-260 34 -403 217t-143 485z" />
<glyph unicode="&#xc8;" horiz-adv-x="1216" d="M170 0v1382h897l20 -231h-585v-320h532v-227h-532v-373h633l-21 -231h-944zM213 1774h336q94 -151 231 -314h-264q-135 115 -303 314z" />
<glyph unicode="&#xc9;" horiz-adv-x="1216" d="M170 0v1382h897l20 -231h-585v-320h532v-227h-532v-373h633l-21 -231h-944zM473 1460q141 168 232 314h335q-168 -199 -303 -314h-264z" />
<glyph unicode="&#xca;" horiz-adv-x="1216" d="M170 0v1382h897l20 -231h-585v-320h532v-227h-532v-373h633l-21 -231h-944zM184 1460q166 180 260 314h318q107 -148 260 -314h-262q-17 20 -72.5 86.5t-85.5 100.5q-10 -12 -69 -83.5t-87 -103.5h-262z" />
<glyph unicode="&#xcb;" horiz-adv-x="1216" d="M170 0v1382h897l20 -231h-585v-320h532v-227h-532v-373h633l-21 -231h-944zM291 1499v225h246v-225h-246zM707 1499v225h245v-225h-245z" />
<glyph unicode="&#xcc;" horiz-adv-x="669" d="M-100 1774h336q94 -151 231 -314h-264q-135 115 -303 314zM170 0v1382h332v-1382h-332z" />
<glyph unicode="&#xcd;" horiz-adv-x="669" d="M170 0v1382h332v-1382h-332zM201 1460q137 163 231 314h336q-168 -199 -303 -314h-264z" />
<glyph unicode="&#xce;" horiz-adv-x="669" d="M-84 1460q166 180 260 314h318q107 -148 260 -314h-262q-17 20 -72.5 86.5t-85.5 100.5q-10 -12 -69 -83.5t-87 -103.5h-262zM170 0v1382h332v-1382h-332z" />
<glyph unicode="&#xcf;" horiz-adv-x="669" d="M4 1499v225h246v-225h-246zM170 0v1382h332v-1382h-332zM420 1499v225h246v-225h-246z" />
<glyph unicode="&#xd0;" horiz-adv-x="1482" d="M0 610v215h170v557h551q188 0 323.5 -47.5t216.5 -138t118.5 -212.5t37.5 -282q0 -152 -40 -277t-122 -221.5t-218 -150t-316 -53.5h-551v610h-170zM502 215h151q206 0 308 119t102 366q0 243 -99.5 354t-310.5 111h-151v-340h289v-215h-289v-395z" />
<glyph unicode="&#xd1;" horiz-adv-x="1519" d="M170 0v1382h344l395 -645q17 -30 75 -128t75 -130h4v903h287v-1382h-342l-420 670q-22 34 -72.5 119.5t-56.5 95.5h-2v-885h-287zM373 1462q6 129 64.5 203t152.5 74q62 0 164.5 -36t142.5 -36q51 0 75.5 30t39.5 83l166 -29q-6 -128 -65 -202t-155 -74q-61 0 -163 35.5 t-144 35.5q-50 0 -74.5 -30.5t-37.5 -81.5z" />
<glyph unicode="&#xd2;" horiz-adv-x="1460" d="M66 670q0 352 170 545.5t501 193.5q327 0 492.5 -175t165.5 -511q0 -353 -171 -551.5t-503 -198.5q-324 0 -489.5 180.5t-165.5 516.5zM322 1774h335q91 -146 232 -314h-264q-135 115 -303 314zM422 676q0 -238 73.5 -354.5t231.5 -116.5q313 0 313 512 q0 234 -73.5 346.5t-231.5 112.5q-160 0 -236.5 -126t-76.5 -374z" />
<glyph unicode="&#xd3;" horiz-adv-x="1460" d="M66 670q0 352 170 545.5t501 193.5q327 0 492.5 -175t165.5 -511q0 -353 -171 -551.5t-503 -198.5q-324 0 -489.5 180.5t-165.5 516.5zM422 676q0 -238 73.5 -354.5t231.5 -116.5q313 0 313 512q0 234 -73.5 346.5t-231.5 112.5q-160 0 -236.5 -126t-76.5 -374zM602 1460 q141 168 232 314h335q-168 -199 -303 -314h-264z" />
<glyph unicode="&#xd4;" horiz-adv-x="1460" d="M66 670q0 352 170 545.5t501 193.5q327 0 492.5 -175t165.5 -511q0 -353 -171 -551.5t-503 -198.5q-324 0 -489.5 180.5t-165.5 516.5zM315 1460q166 180 260 314h318q107 -148 260 -314h-262q-17 20 -72.5 86.5t-85.5 100.5q-19 -22 -73.5 -89t-81.5 -98h-263zM422 676 q0 -238 73.5 -354.5t231.5 -116.5q313 0 313 512q0 234 -73.5 346.5t-231.5 112.5q-160 0 -236.5 -126t-76.5 -374z" />
<glyph unicode="&#xd5;" horiz-adv-x="1460" d="M66 670q0 352 170 545.5t501 193.5q327 0 492.5 -175t165.5 -511q0 -353 -171 -551.5t-503 -198.5q-324 0 -489.5 180.5t-165.5 516.5zM342 1462q6 129 64.5 203t152.5 74q62 0 164.5 -36t142.5 -36q51 0 75.5 30t39.5 83l166 -29q-6 -129 -64.5 -202.5t-154.5 -73.5 q-61 0 -163 35.5t-144 35.5q-50 0 -75 -30.5t-38 -81.5zM422 676q0 -238 73.5 -354.5t231.5 -116.5q313 0 313 512q0 234 -73.5 346.5t-231.5 112.5q-160 0 -236.5 -126t-76.5 -374z" />
<glyph unicode="&#xd6;" horiz-adv-x="1460" d="M66 670q0 352 170 545.5t501 193.5q327 0 492.5 -175t165.5 -511q0 -353 -171 -551.5t-503 -198.5q-324 0 -489.5 180.5t-165.5 516.5zM403 1499v225h246v-225h-246zM422 676q0 -238 73.5 -354.5t231.5 -116.5q313 0 313 512q0 234 -73.5 346.5t-231.5 112.5 q-160 0 -236.5 -126t-76.5 -374zM819 1499v225h246v-225h-246z" />
<glyph unicode="&#xd7;" d="M104 313l295 295l-295 295l154 152l293 -295l297 297l151 -152l-297 -295l295 -293l-151 -153l-295 293l-295 -293z" />
<glyph unicode="&#xd8;" horiz-adv-x="1460" d="M66 670q0 352 170 545.5t501 193.5q214 0 357 -90l67 90h234l-148 -197q148 -174 148 -489q0 -353 -171 -551.5t-503 -198.5q-212 0 -352 90l-68 -90h-233l147 197q-149 174 -149 500zM416 676q0 -137 45 -211l477 647q-73 76 -203 76q-163 0 -241 -129t-78 -383z M522 270q72 -75 205 -75q317 0 317 522q0 136 -43 201z" />
<glyph unicode="&#xd9;" horiz-adv-x="1449" d="M152 430v952h331v-866q0 -72 10 -123t37 -96.5t80.5 -68.5t134.5 -23q145 0 206 80t61 227v870h286v-952q0 -207 -144 -332t-427 -125q-131 0 -233 26t-165.5 68t-104 102.5t-56.5 124t-16 136.5zM332 1774h336q94 -151 231 -314h-264q-135 115 -303 314z" />
<glyph unicode="&#xda;" horiz-adv-x="1449" d="M152 430v952h331v-866q0 -72 10 -123t37 -96.5t80.5 -68.5t134.5 -23q145 0 206 80t61 227v870h286v-952q0 -207 -144 -332t-427 -125q-131 0 -233 26t-165.5 68t-104 102.5t-56.5 124t-16 136.5zM594 1460q137 163 231 314h336q-168 -199 -303 -314h-264z" />
<glyph unicode="&#xdb;" horiz-adv-x="1449" d="M152 430v952h331v-866q0 -72 10 -123t37 -96.5t80.5 -68.5t134.5 -23q145 0 206 80t61 227v870h286v-952q0 -207 -144 -332t-427 -125q-131 0 -233 26t-165.5 68t-104 102.5t-56.5 124t-16 136.5zM315 1460q166 180 260 314h318q107 -148 260 -314h-262 q-17 20 -72.5 86.5t-85.5 100.5q-19 -22 -73.5 -89t-81.5 -98h-263z" />
<glyph unicode="&#xdc;" horiz-adv-x="1449" d="M152 430v952h331v-866q0 -72 10 -123t37 -96.5t80.5 -68.5t134.5 -23q145 0 206 80t61 227v870h286v-952q0 -207 -144 -332t-427 -125q-131 0 -233 26t-165.5 68t-104 102.5t-56.5 124t-16 136.5zM416 1499v225h246v-225h-246zM831 1499v225h246v-225h-246z" />
<glyph unicode="&#xdd;" horiz-adv-x="1343" d="M43 1382h371l276 -579h2l275 579h336l-465 -884v-498h-332v494zM557 1460q137 163 231 314h336q-168 -199 -303 -314h-264z" />
<glyph unicode="&#xde;" horiz-adv-x="1304" d="M170 0v1382h332v-153h235q81 0 153 -14.5t136.5 -47.5t111 -82.5t74 -124.5t27.5 -169q0 -215 -137.5 -329t-366.5 -114h-233v-348h-332zM502 553h119q127 0 199.5 59t72.5 179q0 123 -72 179t-196 56h-123v-473z" />
<glyph unicode="&#xdf;" horiz-adv-x="1466" d="M57 844v198l121 19v117q0 165 154.5 251.5t441.5 86.5q118 0 213.5 -15.5t174 -50t122 -96.5t43.5 -148q0 -60 -23 -107t-60 -76.5t-81.5 -52.5t-89 -41t-81.5 -37t-60 -46t-23 -62q0 -34 27 -58.5t70.5 -41t96 -33.5t105 -43t96 -61.5t70.5 -97t27 -142.5 q0 -162 -112 -248t-320 -86q-195 0 -340 72l-15 180q137 -39 295 -39q89 0 135 24.5t46 82.5q0 34 -27 58.5t-70 41t-95.5 33.5t-105 41.5t-95.5 58t-70 90.5t-27 132q0 61 22 108.5t56.5 77t77 53t84.5 41.5t76.5 37.5t56.5 47t22 63.5q0 133 -231 133q-155 0 -218 -55.5 t-63 -159.5v-1094h-305v844h-121z" />
<glyph unicode="&#xe0;" horiz-adv-x="1173" d="M76 287q0 174 103 266t313 92q115 0 241 -35v92q0 80 -60 118t-186 38q-152 0 -309 -57l19 190q154 96 405 96q434 0 434 -333v-754h-276l-21 90h-6q-99 -60 -175 -88.5t-169 -28.5q-135 0 -224 82t-89 232zM205 1516h334q93 -167 235 -357h-262q-134 129 -307 357z M365 322q0 -56 39.5 -90.5t111.5 -34.5q100 0 217 65v176q-89 21 -164 21q-204 0 -204 -137z" />
<glyph unicode="&#xe1;" horiz-adv-x="1173" d="M76 287q0 174 103 266t313 92q115 0 241 -35v92q0 80 -60 118t-186 38q-152 0 -309 -57l19 190q154 96 405 96q434 0 434 -333v-754h-276l-21 90h-6q-99 -60 -175 -88.5t-169 -28.5q-135 0 -224 82t-89 232zM365 322q0 -56 39.5 -90.5t111.5 -34.5q100 0 217 65v176 q-89 21 -164 21q-204 0 -204 -137zM463 1159q133 174 235 357h334q-69 -93 -153.5 -191.5t-153.5 -165.5h-262z" />
<glyph unicode="&#xe2;" horiz-adv-x="1173" d="M76 287q0 174 103 266t313 92q115 0 241 -35v92q0 80 -60 118t-186 38q-152 0 -309 -57l19 190q154 96 405 96q434 0 434 -333v-754h-276l-21 90h-6q-99 -60 -175 -88.5t-169 -28.5q-135 0 -224 82t-89 232zM182 1159q160 202 258 357h322q114 -178 258 -357h-260 q-22 28 -48.5 66t-62 90.5t-49.5 73.5q-77 -116 -158 -230h-260zM365 322q0 -56 39.5 -90.5t111.5 -34.5q100 0 217 65v176q-89 21 -164 21q-204 0 -204 -137z" />
<glyph unicode="&#xe3;" horiz-adv-x="1173" d="M76 287q0 174 103 266t313 92q115 0 241 -35v92q0 80 -60 118t-186 38q-152 0 -309 -57l19 190q154 96 405 96q434 0 434 -333v-754h-276l-21 90h-6q-99 -60 -175 -88.5t-169 -28.5q-135 0 -224 82t-89 232zM211 1233q6 128 64.5 202t152.5 74q62 0 164.5 -35.5 t142.5 -35.5q51 0 75.5 30t39.5 82l166 -28q-6 -129 -65 -203t-154 -74q-61 0 -163.5 36t-144.5 36q-50 0 -74.5 -30.5t-37.5 -82.5zM365 322q0 -56 39.5 -90.5t111.5 -34.5q100 0 217 65v176q-89 21 -164 21q-204 0 -204 -137z" />
<glyph unicode="&#xe4;" horiz-adv-x="1173" d="M76 287q0 174 103 266t313 92q115 0 241 -35v92q0 80 -60 118t-186 38q-152 0 -309 -57l19 190q154 96 405 96q434 0 434 -333v-754h-276l-21 90h-6q-99 -60 -175 -88.5t-169 -28.5q-135 0 -224 82t-89 232zM274 1292v224h246v-224h-246zM365 322q0 -56 39.5 -90.5 t111.5 -34.5q100 0 217 65v176q-89 21 -164 21q-204 0 -204 -137zM690 1292v224h246v-224h-246z" />
<glyph unicode="&#xe5;" horiz-adv-x="1173" d="M76 287q0 174 103 266t313 92q115 0 241 -35v92q0 80 -60 118t-186 38q-152 0 -309 -57l19 190q154 96 405 96q434 0 434 -333v-754h-276l-21 90h-6q-99 -60 -175 -88.5t-169 -28.5q-135 0 -224 82t-89 232zM332 1362q0 98 72.5 151.5t207.5 53.5q134 0 203.5 -51.5 t69.5 -147.5q0 -98 -72 -151.5t-207 -53.5t-204.5 51.5t-69.5 147.5zM365 322q0 -56 39.5 -90.5t111.5 -34.5q100 0 217 65v176q-89 21 -164 21q-204 0 -204 -137zM514 1362q0 -43 25 -66.5t69 -23.5q45 0 69.5 24.5t24.5 71.5q0 44 -24.5 67t-69.5 23q-44 0 -69 -25 t-25 -71z" />
<glyph unicode="&#xe6;" horiz-adv-x="1773" d="M72 287q0 172 102.5 264t312.5 92q119 0 242 -35v94q0 80 -59 118t-185 38q-150 0 -311 -57l19 190q154 96 405 96q240 0 326 -129h4q113 129 297 129q102 0 187 -25t153 -77.5t106.5 -143t38.5 -212.5q0 -86 -16 -146h-662q0 -57 15 -103.5t49.5 -87.5t99.5 -64t156 -23 q165 0 321 57l-16 -192q-153 -97 -397 -97q-286 0 -412 168h-4q-116 -89 -219 -128.5t-226 -39.5q-148 0 -237.5 83.5t-89.5 230.5zM362 322q0 -56 39.5 -90.5t112.5 -34.5q135 0 258 86q-29 59 -35 153q-84 23 -170 23q-205 0 -205 -137zM1034 674h377q6 112 -40.5 170.5 t-137.5 58.5q-97 0 -145.5 -63t-53.5 -166z" />
<glyph unicode="&#xe7;" horiz-adv-x="972" d="M66 530q0 123 31 223.5t93.5 175.5t163.5 116.5t234 41.5q175 0 305 -73v-344h-160l-31 178q-37 16 -84 16q-62 0 -107 -25t-70.5 -70.5t-37.5 -101.5t-12 -126q0 -330 295 -330q121 0 238 55l-19 -196q-112 -74 -262 -88q49 -86 49 -172q0 -102 -71 -156.5t-179 -54.5 q-131 0 -235 65l-14 133q58 -28 133 -28q139 0 139 116q0 45 -19 97q-180 29 -280 173t-100 375z" />
<glyph unicode="&#xe8;" horiz-adv-x="1122" d="M55 535q0 259 134 405.5t384 146.5q101 0 186 -25t154 -77.5t107.5 -143t38.5 -212.5q0 -69 -17 -146h-661q-1 -55 14 -101t49.5 -86.5t99 -63.5t154.5 -23q166 0 326 57l-20 -196q-150 -97 -398 -97q-258 0 -404.5 141t-146.5 421zM160 1516h334q93 -167 235 -357h-262 q-134 129 -307 357zM381 676h377q6 111 -40 169t-136 58q-98 0 -146 -62t-55 -165z" />
<glyph unicode="&#xe9;" horiz-adv-x="1122" d="M55 535q0 259 134 405.5t384 146.5q101 0 186 -25t154 -77.5t107.5 -143t38.5 -212.5q0 -69 -17 -146h-661q-1 -55 14 -101t49.5 -86.5t99 -63.5t154.5 -23q166 0 326 57l-20 -196q-150 -97 -398 -97q-258 0 -404.5 141t-146.5 421zM381 676h377q6 111 -40 169t-136 58 q-98 0 -146 -62t-55 -165zM408 1159q133 174 235 357h334q-69 -93 -153.5 -191.5t-153.5 -165.5h-262z" />
<glyph unicode="&#xea;" horiz-adv-x="1122" d="M55 535q0 259 134 405.5t384 146.5q101 0 186 -25t154 -77.5t107.5 -143t38.5 -212.5q0 -69 -17 -146h-661q-1 -55 14 -101t49.5 -86.5t99 -63.5t154.5 -23q166 0 326 57l-20 -196q-150 -97 -398 -97q-258 0 -404.5 141t-146.5 421zM147 1159q165 209 259 357h321 q114 -178 258 -357h-260q-22 28 -48.5 66t-62 90.5t-49.5 73.5q-90 -136 -157 -230h-261zM381 676h377q6 111 -40 169t-136 58q-98 0 -146 -62t-55 -165z" />
<glyph unicode="&#xeb;" horiz-adv-x="1122" d="M55 535q0 259 134 405.5t384 146.5q101 0 186 -25t154 -77.5t107.5 -143t38.5 -212.5q0 -69 -17 -146h-661q-1 -55 14 -101t49.5 -86.5t99 -63.5t154.5 -23q166 0 326 57l-20 -196q-150 -97 -398 -97q-258 0 -404.5 141t-146.5 421zM236 1292v224h245v-224h-245zM381 676 h377q6 111 -40 169t-136 58q-98 0 -146 -62t-55 -165zM651 1292v224h246v-224h-246z" />
<glyph unicode="&#xec;" horiz-adv-x="610" d="M-135 1516h334q93 -167 235 -357h-262q-134 129 -307 357zM152 0v1061h305v-1061h-305z" />
<glyph unicode="&#xed;" horiz-adv-x="610" d="M152 0v1061h305v-1061h-305zM172 1159q137 179 236 357h333q-69 -93 -153.5 -191.5t-153.5 -165.5h-262z" />
<glyph unicode="&#xee;" horiz-adv-x="610" d="M-113 1159q160 202 258 357h322q114 -178 258 -357h-260q-22 28 -48.5 66t-62 90.5t-49.5 73.5q-77 -116 -158 -230h-260zM152 0v1061h305v-1061h-305z" />
<glyph unicode="&#xef;" horiz-adv-x="610" d="M-25 1292v224h246v-224h-246zM152 0v1061h305v-1061h-305zM391 1292v224h246v-224h-246z" />
<glyph unicode="&#xf0;" horiz-adv-x="1214" d="M55 512q0 106 31 201t90.5 171t156 120.5t218.5 44.5q89 0 194 -37h7q-38 90 -107 172l-252 -72l-37 193l136 51q-83 69 -203 145l303 15q91 -51 162 -109l284 74l39 -193l-145 -49q227 -266 227 -668q0 -149 -42.5 -264.5t-118.5 -187.5t-177.5 -109t-222.5 -37 q-265 0 -404 138.5t-139 400.5zM379 502q0 -155 58 -236.5t167 -81.5q230 0 230 367q0 134 -29 256q-82 35 -168 35q-67 0 -117.5 -26.5t-80.5 -73.5t-45 -107t-15 -133z" />
<glyph unicode="&#xf1;" horiz-adv-x="1290" d="M164 0v1061h278l13 -96h4q97 59 181.5 90.5t180.5 31.5q146 0 236 -71q67 -51 87.5 -124t20.5 -196v-696h-305v621q0 41 -1.5 62.5t-13.5 52t-36 50.5q-44 41 -127 41q-97 0 -213 -65v-762h-305zM252 1233q6 128 64.5 202t152.5 74q62 0 164.5 -35.5t142.5 -35.5 q51 0 75.5 30t39.5 82l166 -28q-6 -129 -65 -203t-154 -74q-61 0 -163.5 36t-144.5 36q-50 0 -74.5 -30.5t-37.5 -82.5z" />
<glyph unicode="&#xf2;" horiz-adv-x="1216" d="M55 512q0 278 142.5 426.5t416.5 148.5q269 0 407 -135t138 -397q0 -276 -142.5 -429t-414.5 -153q-268 0 -407.5 138.5t-139.5 400.5zM182 1516h334q90 -162 236 -357h-263q-134 129 -307 357zM379 520q0 -159 56.5 -243t170.5 -84t173 93t59 261q0 323 -226 323 q-115 0 -174 -91.5t-59 -258.5z" />
<glyph unicode="&#xf3;" horiz-adv-x="1216" d="M55 512q0 278 142.5 426.5t416.5 148.5q269 0 407 -135t138 -397q0 -276 -142.5 -429t-414.5 -153q-268 0 -407.5 138.5t-139.5 400.5zM379 520q0 -159 56.5 -243t170.5 -84t173 93t59 261q0 323 -226 323q-115 0 -174 -91.5t-59 -258.5zM453 1161q133 174 235 357h334 q-69 -93 -153.5 -191.5t-153.5 -165.5h-262z" />
<glyph unicode="&#xf4;" horiz-adv-x="1216" d="M55 512q0 278 142.5 426.5t416.5 148.5q269 0 407 -135t138 -397q0 -276 -142.5 -429t-414.5 -153q-268 0 -407.5 138.5t-139.5 400.5zM195 1159q160 202 258 357h321q114 -178 258 -357h-260q-22 28 -48.5 66t-62 90.5t-49.5 73.5q-90 -136 -157 -230h-260zM379 520 q0 -159 56.5 -243t170.5 -84t173 93t59 261q0 323 -226 323q-115 0 -174 -91.5t-59 -258.5z" />
<glyph unicode="&#xf5;" horiz-adv-x="1216" d="M55 512q0 278 142.5 426.5t416.5 148.5q269 0 407 -135t138 -397q0 -276 -142.5 -429t-414.5 -153q-268 0 -407.5 138.5t-139.5 400.5zM211 1233q6 128 64.5 202t152.5 74q62 0 164.5 -35.5t142.5 -35.5q51 0 75.5 30t39.5 82l166 -28q-6 -129 -65 -203t-154 -74 q-61 0 -163.5 36t-144.5 36q-50 0 -74.5 -30.5t-37.5 -82.5zM379 520q0 -159 56.5 -243t170.5 -84t173 93t59 261q0 323 -226 323q-115 0 -174 -91.5t-59 -258.5z" />
<glyph unicode="&#xf6;" horiz-adv-x="1216" d="M55 512q0 278 142.5 426.5t416.5 148.5q269 0 407 -135t138 -397q0 -276 -142.5 -429t-414.5 -153q-268 0 -407.5 138.5t-139.5 400.5zM293 1292v224h246v-224h-246zM379 520q0 -159 56.5 -243t170.5 -84t173 93t59 261q0 323 -226 323q-115 0 -174 -91.5t-59 -258.5z M709 1292v224h245v-224h-245z" />
<glyph unicode="&#xf7;" d="M66 504v215h970v-215h-970zM416 78v260h266v-260h-27h-239zM416 885v260h266v-260h-266z" />
<glyph unicode="&#xf8;" horiz-adv-x="1216" d="M55 512q0 279 141.5 427t417.5 148q162 0 275 -61l45 61h227l-121 -153q119 -131 119 -379q0 -279 -141 -430.5t-416 -151.5q-158 0 -272 60l-45 -60h-226l119 154q-123 135 -123 385zM381 552q2 -88 27 -163l329 442q-51 48 -125 48t-125 -39q-54 -39 -81 -119.5 t-25 -168.5zM479 227q46 -43 127 -43q80 0 129 41q53 40 78.5 121.5t22.5 167t-27 156.5z" />
<glyph unicode="&#xf9;" horiz-adv-x="1269" d="M137 367v694h305v-621q0 -39 2 -62.5t13 -53t32 -48.5q46 -43 123 -43q87 0 199 68v760h305v-1061h-276l-13 98h-4q-94 -60 -176 -92.5t-176 -32.5q-137 0 -227 72q-66 54 -86.5 126.5t-20.5 195.5zM201 1516h334q93 -167 235 -357h-262q-134 129 -307 357z" />
<glyph unicode="&#xfa;" horiz-adv-x="1269" d="M137 367v694h305v-621q0 -39 2 -62.5t13 -53t32 -48.5q46 -43 123 -43q87 0 199 68v760h305v-1061h-276l-13 98h-4q-94 -60 -176 -92.5t-176 -32.5q-137 0 -227 72q-66 54 -86.5 126.5t-20.5 195.5zM496 1159q133 174 235 357h334q-69 -93 -153.5 -191.5t-153.5 -165.5 h-262z" />
<glyph unicode="&#xfb;" horiz-adv-x="1269" d="M137 367v694h305v-621q0 -39 2 -62.5t13 -53t32 -48.5q46 -43 123 -43q87 0 199 68v760h305v-1061h-276l-13 98h-4q-94 -60 -176 -92.5t-176 -32.5q-137 0 -227 72q-66 54 -86.5 126.5t-20.5 195.5zM211 1159q160 202 258 357h322q114 -178 258 -357h-261 q-22 28 -48.5 66.5t-60.5 89.5t-50 74q-77 -116 -158 -230h-260z" />
<glyph unicode="&#xfc;" horiz-adv-x="1269" d="M137 367v694h305v-621q0 -39 2 -62.5t13 -53t32 -48.5q46 -43 123 -43q87 0 199 68v760h305v-1061h-276l-13 98h-4q-94 -60 -176 -92.5t-176 -32.5q-137 0 -227 72q-66 54 -86.5 126.5t-20.5 195.5zM303 1292v224h246v-224h-246zM719 1292v224h246v-224h-246z" />
<glyph unicode="&#xfd;" horiz-adv-x="1097" d="M20 1061h334l181 -463q55 -148 81 -285h5q30 161 67 297l123 451h283l-320 -1069q-30 -101 -63.5 -169.5t-85 -124t-127 -82t-179.5 -26.5q-95 0 -188 37l-20 197q68 -19 153 -19q84 0 128 37.5t65 116.5l12 41zM438 1159q137 179 236 357h334q-157 -212 -308 -357h-262z " />
<glyph unicode="&#xfe;" horiz-adv-x="1249" d="M152 -410v1895l305 31v-541h4q90 55 163.5 83.5t157.5 28.5q192 0 302 -144t110 -392q0 -271 -128.5 -424.5t-367.5 -153.5q-126 0 -241 54v-406zM457 236q78 -33 151 -33q124 0 193 81t69 242q0 149 -61 225t-160 76q-50 0 -93 -16.5t-99 -48.5v-526z" />
<glyph unicode="&#xff;" horiz-adv-x="1097" d="M20 1061h334l181 -463q55 -148 81 -285h5q30 161 67 297l123 451h283l-320 -1069q-30 -101 -63.5 -169.5t-85 -124t-127 -82t-179.5 -26.5q-95 0 -188 37l-20 197q68 -19 153 -19q84 0 128 37.5t65 116.5l12 41zM242 1292v224h245v-224h-245zM657 1292v224h246v-224h-246 z" />
<glyph unicode="&#x152;" horiz-adv-x="2015" d="M66 670q0 166 40.5 298.5t122.5 232.5t217.5 154t315.5 54q154 0 323 -27h781l20 -231h-586v-320h533v-227h-533v-373h633l-20 -231h-830q-204 -27 -338 -27q-348 0 -513.5 180.5t-165.5 516.5zM422 676q0 -230 80 -349.5t262 -119.5q83 0 205 20v930q-104 19 -191 19 q-193 0 -274.5 -126.5t-81.5 -373.5z" />
<glyph unicode="&#x153;" horiz-adv-x="1890" d="M55 512q0 277 143 426t416 149q264 0 379 -163h4q118 163 344 163q102 0 187 -25t153.5 -77.5t107 -143t38.5 -212.5q0 -82 -17 -146h-661q0 -57 15 -103.5t49.5 -87.5t99 -64t155.5 -23q166 0 322 57l-16 -192q-153 -97 -398 -97q-267 0 -387 179h-4 q-122 -179 -383 -179q-268 0 -407.5 138.5t-139.5 400.5zM379 520q0 -159 56.5 -243t170.5 -84t173 93t59 261q0 323 -226 323q-115 0 -174 -91.5t-59 -258.5zM1151 674h377q6 112 -40.5 170.5t-137.5 58.5q-97 0 -145.5 -63t-53.5 -166z" />
<glyph unicode="&#x178;" horiz-adv-x="1343" d="M43 1382h371l276 -579h2l275 579h336l-465 -884v-498h-332v494zM358 1499v225h246v-225h-246zM774 1499v225h246v-225h-246z" />
<glyph unicode="&#x2c6;" horiz-adv-x="1136" d="M150 1159q160 202 258 357h321q114 -178 258 -357h-260q-22 28 -48.5 66t-62 90.5t-49.5 73.5q-90 -136 -157 -230h-260z" />
<glyph unicode="&#x2dc;" horiz-adv-x="1136" d="M166 1233q6 128 64.5 202t152.5 74q62 0 164.5 -35.5t142.5 -35.5q51 0 75.5 30t39.5 82l166 -28q-6 -129 -65 -203t-154 -74q-61 0 -163.5 36t-144.5 36q-50 0 -74.5 -30.5t-37.5 -82.5z" />
<glyph unicode="&#x2000;" horiz-adv-x="926" />
<glyph unicode="&#x2001;" horiz-adv-x="1853" />
<glyph unicode="&#x2002;" horiz-adv-x="926" />
<glyph unicode="&#x2003;" horiz-adv-x="1853" />
<glyph unicode="&#x2004;" horiz-adv-x="617" />
<glyph unicode="&#x2005;" horiz-adv-x="463" />
<glyph unicode="&#x2006;" horiz-adv-x="308" />
<glyph unicode="&#x2007;" horiz-adv-x="308" />
<glyph unicode="&#x2008;" horiz-adv-x="231" />
<glyph unicode="&#x2009;" horiz-adv-x="370" />
<glyph unicode="&#x200a;" horiz-adv-x="102" />
<glyph unicode="&#x2010;" horiz-adv-x="552" d="M29 420l8 223h487l-6 -223h-489z" />
<glyph unicode="&#x2011;" horiz-adv-x="552" d="M29 420l8 223h487l-6 -223h-489z" />
<glyph unicode="&#x2012;" horiz-adv-x="552" d="M29 420l8 223h487l-6 -223h-489z" />
<glyph unicode="&#x2013;" d="M20 438l9 189h1056l-8 -189h-1057z" />
<glyph unicode="&#x2014;" horiz-adv-x="2211" d="M18 438l9 189h2164l-8 -189h-2165z" />
<glyph unicode="&#x2018;" horiz-adv-x="552" d="M92 1100q0 225 215 416h230q-85 -76 -139 -163t-64 -167l45 -225h-279q-8 90 -8 139z" />
<glyph unicode="&#x2019;" horiz-adv-x="552" d="M16 961q84 76 137.5 162t63.5 167l-43 226h279q6 -71 6 -142q0 -226 -213 -413h-230z" />
<glyph unicode="&#x201a;" horiz-adv-x="552" d="M8 -285q84 76 137.5 162.5t63.5 167.5l-43 225h278q7 -82 7 -141q0 -227 -213 -414h-230z" />
<glyph unicode="&#x201c;" horiz-adv-x="987" d="M92 1100q0 225 215 416h230q-85 -76 -139 -163t-64 -167l45 -225h-279q-8 90 -8 139zM512 1100q0 225 215 416h229q-84 -76 -138 -162.5t-64 -167.5l45 -225h-279q-8 90 -8 139z" />
<glyph unicode="&#x201d;" horiz-adv-x="987" d="M16 961q84 76 137.5 162t63.5 167l-43 226h279q6 -71 6 -142q0 -226 -213 -413h-230zM436 961q84 76 137.5 162t63.5 167l-43 226h278q7 -82 7 -142q0 -226 -213 -413h-230z" />
<glyph unicode="&#x201e;" horiz-adv-x="987" d="M16 -285q84 76 137.5 162.5t63.5 167.5l-43 225h279q6 -70 6 -141q0 -227 -213 -414h-230zM436 -285q84 76 137.5 162.5t63.5 167.5l-43 225h278q7 -82 7 -141q0 -227 -213 -414h-230z" />
<glyph unicode="&#x2022;" horiz-adv-x="866" d="M152 225v615h565v-615h-565z" />
<glyph unicode="&#x2026;" horiz-adv-x="2211" d="M182 0v270h267v-270h-267zM973 0v270h266v-270h-266zM1761 0v270h267v-270h-267z" />
<glyph unicode="&#x202f;" horiz-adv-x="370" />
<glyph unicode="&#x2039;" horiz-adv-x="653" d="M57 532q161 236 318 418h221q-141 -199 -256 -418q90 -182 256 -417h-221q-162 185 -318 417z" />
<glyph unicode="&#x203a;" horiz-adv-x="653" d="M57 115q149 212 256 417q-115 219 -256 418h222q133 -154 317 -418q-176 -256 -317 -417h-222z" />
<glyph unicode="&#x205f;" horiz-adv-x="463" />
<glyph unicode="&#x20ac;" d="M29 369v174h131q-2 20 -2 65t4 68h-133v174h166q57 181 188 293t334 112q210 0 330 -90l20 -176q-112 64 -254 64q-206 0 -278 -203h444v-174h-502q-4 -46 -4 -68q0 -25 4 -65h502v-174h-436q34 -90 106 -141.5t182 -51.5q142 0 254 64l-20 -177q-57 -43 -145.5 -66.5 t-190.5 -23.5q-205 0 -345 103t-194 293h-161z" />
<glyph unicode="&#x2122;" horiz-adv-x="1939" d="M20 1219l13 163h737l12 -163h-262v-682h-237v682h-263zM874 537l35 845h289l115 -307q28 -86 39 -151h6q17 84 39 151l112 307h297l35 -845h-237l-15 352q-4 82 -4 151h-6q-4 -14 -17 -69t-20 -80l-98 -248h-207l-100 248q-6 19 -39 149h-6q0 -28 -5 -151l-12 -352h-201z " />
<glyph unicode="&#x25fc;" horiz-adv-x="1064" d="M0 0v1065h1065v-1065h-1065z" />
</font>
</defs>
</svg>
